<?xml version="1.0" standalone="no"?>
<!DOCTYPE svg PUBLIC "-//W3C//DTD SVG 1.1//EN" "http://www.w3.org/Graphics/SVG/1.1/DTD/svg11.dtd" >
<svg xmlns="http://www.w3.org/2000/svg" xmlns:xlink="http://www.w3.org/1999/xlink" version="1.1">
<metadata>
Created by FontForge 20201107 at Wed Aug  4 12:36:44 2021
 By Robert Madole
Copyright (c) Font Awesome
</metadata>
<!-- Font Awesome Pro 5.15.4 by @fontawesome - https://fontawesome.com License - https://fontawesome.com/license (Commercial License) --><defs>
<font id="FontAwesome5Pro-Solid" horiz-adv-x="512" >
  <font-face 
    font-family="Font Awesome 5 Pro Solid"
    font-weight="900"
    font-stretch="normal"
    units-per-em="512"
    panose-1="2 0 5 3 0 0 0 0 0 0"
    ascent="448"
    descent="-64"
    bbox="-0.0560251 -64.0722 640.104 448.075"
    underline-thickness="25"
    underline-position="-50"
    unicode-range="U+0020-F8FF"
  />
    <missing-glyph />
    <glyph glyph-name="search" unicode="&#xf002;" 
d="M505 5.2998c9.2998 -9.39941 9.2998 -24.5996 -0.0996094 -34l-28.3008 -28.2998c-9.2998 -9.40039 -24.5 -9.40039 -33.8994 0l-99.7002 99.7002c-4.5 4.5 -7 10.5996 -7 17v16.2998c-35.2998 -27.5996 -79.7002 -44 -128 -44c-114.9 0 -208 93.0996 -208 208
s93.0996 208 208 208s208 -93.0996 208 -208c0 -48.2998 -16.4004 -92.7002 -44 -128h16.2998c6.40039 0 12.5 -2.5 17 -7zM208 112c70.7998 0 128 57.2998 128 128c0 70.7998 -57.2998 128 -128 128c-70.7998 0 -128 -57.2998 -128 -128c0 -70.7998 57.2998 -128 128 -128z
" />
    <glyph glyph-name="film" unicode="&#xf008;" 
d="M488 384c13.2998 0 24 -10.7002 24 -24v-336c0 -13.2998 -10.7002 -24 -24 -24h-8v20c0 6.59961 -5.40039 12 -12 12h-40c-6.59961 0 -12 -5.40039 -12 -12v-20h-320v20c0 6.59961 -5.40039 12 -12 12h-40c-6.59961 0 -12 -5.40039 -12 -12v-20h-8
c-13.2998 0 -24 10.7002 -24 24v336c0 13.2998 10.7002 24 24 24h8v-20c0 -6.59961 5.40039 -12 12 -12h40c6.59961 0 12 5.40039 12 12v20h320v-20c0 -6.59961 5.40039 -12 12 -12h40c6.59961 0 12 5.40039 12 12v20h8zM96 76v40c0 6.59961 -5.40039 12 -12 12h-40
c-6.59961 0 -12 -5.40039 -12 -12v-40c0 -6.59961 5.40039 -12 12 -12h40c6.59961 0 12 5.40039 12 12zM96 172v40c0 6.59961 -5.40039 12 -12 12h-40c-6.59961 0 -12 -5.40039 -12 -12v-40c0 -6.59961 5.40039 -12 12 -12h40c6.59961 0 12 5.40039 12 12zM96 268v40
c0 6.59961 -5.40039 12 -12 12h-40c-6.59961 0 -12 -5.40039 -12 -12v-40c0 -6.59961 5.40039 -12 12 -12h40c6.59961 0 12 5.40039 12 12zM368 60v96c0 6.59961 -5.40039 12 -12 12h-200c-6.59961 0 -12 -5.40039 -12 -12v-96c0 -6.59961 5.40039 -12 12 -12h200
c6.59961 0 12 5.40039 12 12zM368 228v96c0 6.59961 -5.40039 12 -12 12h-200c-6.59961 0 -12 -5.40039 -12 -12v-96c0 -6.59961 5.40039 -12 12 -12h200c6.59961 0 12 5.40039 12 12zM480 76v40c0 6.59961 -5.40039 12 -12 12h-40c-6.59961 0 -12 -5.40039 -12 -12v-40
c0 -6.59961 5.40039 -12 12 -12h40c6.59961 0 12 5.40039 12 12zM480 172v40c0 6.59961 -5.40039 12 -12 12h-40c-6.59961 0 -12 -5.40039 -12 -12v-40c0 -6.59961 5.40039 -12 12 -12h40c6.59961 0 12 5.40039 12 12zM480 268v40c0 6.59961 -5.40039 12 -12 12h-40
c-6.59961 0 -12 -5.40039 -12 -12v-40c0 -6.59961 5.40039 -12 12 -12h40c6.59961 0 12 5.40039 12 12z" />
    <glyph glyph-name="th-large" unicode="&#xf009;" 
d="M296 416h192c13.2549 0 24 -10.7451 24 -24v-160c0 -13.2549 -10.7451 -24 -24 -24h-192c-13.2549 0 -24 10.7451 -24 24v160c0 13.2549 10.7451 24 24 24zM216 416c13.2549 0 24 -10.7451 24 -24v-160c0 -13.2549 -10.7451 -24 -24 -24h-192
c-13.2549 0 -24 10.7451 -24 24v160c0 13.2549 10.7451 24 24 24h192zM0 152c0 13.2549 10.7451 24 24 24h192c13.2549 0 24 -10.7451 24 -24v-160c0 -13.2549 -10.7451 -24 -24 -24h-192c-13.2549 0 -24 10.7451 -24 24v160zM296 -32c-13.2549 0 -24 10.7451 -24 24v160
c0 13.2549 10.7451 24 24 24h192c13.2549 0 24 -10.7451 24 -24v-160c0 -13.2549 -10.7451 -24 -24 -24h-192z" />
    <glyph glyph-name="th-list" unicode="&#xf00b;" 
d="M149.333 232v-80c0 -13.2549 -10.7451 -24 -24 -24h-101.333c-13.2549 0 -24 10.7451 -24 24v80c0 13.2549 10.7451 24 24 24h101.333c13.2549 0 24 -10.7451 24 -24zM0 72c0 13.2549 10.7451 24 24 24h101.333c13.2549 0 24 -10.7451 24 -24v-80
c0 -13.2549 -10.7451 -24 -24 -24h-101.333c-13.2549 0 -24 10.7451 -24 24v80zM125.333 416c13.2549 0 24 -10.7451 24 -24v-80c0 -13.2549 -10.7451 -24 -24 -24h-101.333c-13.2549 0 -24 10.7451 -24 24v80c0 13.2549 10.7451 24 24 24h101.333zM205.333 -32
c-13.2549 0 -24 10.7451 -24 24v80c0 13.2549 10.7451 24 24 24h282.667c13.2549 0 24 -10.7451 24 -24v-80c0 -13.2549 -10.7451 -24 -24 -24h-282.667zM181.333 392c0 13.2549 10.7451 24 24 24h282.667c13.2549 0 24 -10.7451 24 -24v-80
c0 -13.2549 -10.7451 -24 -24 -24h-282.667c-13.2549 0 -24 10.7451 -24 24v80zM205.333 128c-13.2549 0 -24 10.7451 -24 24v80c0 13.2549 10.7451 24 24 24h282.667c13.2549 0 24 -10.7451 24 -24v-80c0 -13.2549 -10.7451 -24 -24 -24h-282.667z" />
    <glyph glyph-name="check" unicode="&#xf00c;" 
d="M173.898 8.5957l-166.4 166.4c-9.99707 9.99707 -9.99707 26.2061 0 36.2041l36.2031 36.2041c9.99707 9.99805 26.207 9.99805 36.2041 0l112.095 -112.095l240.095 240.095c9.99707 9.99707 26.207 9.99707 36.2041 0l36.2031 -36.2041
c9.99707 -9.99707 9.99707 -26.2061 0 -36.2041l-294.4 -294.401c-9.99805 -9.99707 -26.207 -9.99707 -36.2031 0.000976562z" />
    <glyph glyph-name="search-plus" unicode="&#xf00e;" 
d="M304 256v-32c0 -6.59961 -5.40039 -12 -12 -12h-56v-56c0 -6.59961 -5.40039 -12 -12 -12h-32c-6.59961 0 -12 5.40039 -12 12v56h-56c-6.59961 0 -12 5.40039 -12 12v32c0 6.59961 5.40039 12 12 12h56v56c0 6.59961 5.40039 12 12 12h32c6.59961 0 12 -5.40039 12 -12
v-56h56c6.59961 0 12 -5.40039 12 -12zM505 -28.7002l-28.2998 -28.2998c-9.40039 -9.40039 -24.6006 -9.40039 -33.9004 0l-99.7998 99.7002c-4.5 4.5 -7 10.5996 -7 17v16.2998c-35.2998 -27.5996 -79.7002 -44 -128 -44c-114.9 0 -208 93.0996 -208 208
s93.0996 208 208 208s208 -93.0996 208 -208c0 -48.2998 -16.4004 -92.7002 -44 -128h16.2998c6.40039 0 12.5 -2.5 17 -7l99.7002 -99.7002c9.2998 -9.39941 9.2998 -24.5996 0 -34zM344 240c0 75.2002 -60.7998 136 -136 136s-136 -60.7998 -136 -136
s60.7998 -136 136 -136s136 60.7998 136 136z" />
    <glyph glyph-name="power-off" unicode="&#xf011;" 
d="M400 393.9c63 -45 104 -118.601 104 -201.9c0 -136.8 -110.8 -247.7 -247.5 -248c-136.5 -0.299805 -248.3 111 -248.5 247.6c-0.0996094 83.3008 40.9004 157.101 103.8 202.2c11.7002 8.2998 28 4.7998 35 -7.7002l15.7998 -28.0996
c5.90039 -10.5 3.10059 -23.7998 -6.59961 -31c-41.5 -30.7998 -68 -79.5996 -68 -134.9c-0.0996094 -92.2998 74.5 -168.1 168 -168.1c91.5996 0 168.6 74.2002 168 169.1c-0.299805 51.8008 -24.7002 101.801 -68.0996 134c-9.7002 7.2002 -12.4004 20.5 -6.5 30.9004
l15.7998 28.0996c7 12.4004 23.2002 16.1006 34.7998 7.80078zM296 184c0 -13.2998 -10.7002 -24 -24 -24h-32c-13.2998 0 -24 10.7002 -24 24v240c0 13.2998 10.7002 24 24 24h32c13.2998 0 24 -10.7002 24 -24v-240z" />
    <glyph glyph-name="cog" unicode="&#xf013;" 
d="M487.4 132.3c4.89941 -2.7998 7.09961 -8.59961 5.59961 -14.0996c-11.0996 -35.7002 -30 -67.9004 -54.7002 -94.6006c-3.7998 -4.19922 -9.89941 -5.09961 -14.7998 -2.2998l-42.5996 24.6006c-18 -15.3008 -38.6006 -27.2002 -60.8008 -35.1006v-49.2002
c0 -5.59961 -3.89941 -10.5 -9.39941 -11.6992c-34.9004 -7.80078 -72.5 -8.2002 -109.2 0c-5.5 1.19922 -9.40039 6.09961 -9.40039 11.6992v49.2002c-22.2998 7.7998 -42.8994 19.7002 -60.7998 35.1006l-42.5996 -24.6006c-4.7998 -2.7998 -11 -1.7998 -14.7998 2.2998
c-24.7002 26.8008 -43.6006 59 -54.7002 94.6006c-1.60059 5.39941 0.599609 11.2002 5.5 14l42.5996 24.5996c-4.2998 23.2002 -4.2998 47 0 70.2002l-42.5996 24.5996c-4.90039 2.80078 -7.2002 8.60059 -5.5 14c11.0996 35.7002 30 67.9004 54.7002 94.6006
c3.7998 4.2002 9.89941 5.09961 14.7998 2.2998l42.5 -24.5996c18 15.2998 38.5996 27.1992 60.7998 35.0996v49.2002c0 5.59961 3.90039 10.5 9.40039 11.7002c34.8994 7.7998 72.5 8.19922 109.199 0c5.5 -1.2002 9.40039 -6.10059 9.40039 -11.7002v-49.1006
c22.2998 -7.7998 42.9004 -19.6992 60.7998 -35.0996l42.6006 24.5996c4.7998 2.80078 11 1.80078 14.7998 -2.2998c24.7002 -26.7998 43.5996 -59 54.7002 -94.5996c1.59961 -5.40039 -0.600586 -11.2002 -5.5 -14l-42.6006 -24.6006
c4.2998 -23.1992 4.2998 -47 0 -70.1992zM256 112c44.0996 0 80 35.9004 80 80s-35.9004 80 -80 80s-80 -35.9004 -80 -80s35.9004 -80 80 -80z" />
    <glyph glyph-name="download" unicode="&#xf019;" 
d="M216 448h80c13.2998 0 24 -10.7002 24 -24v-168h87.7002c17.7998 0 26.7002 -21.5 14.0996 -34.0996l-152.1 -152.2c-7.5 -7.5 -19.7998 -7.5 -27.2998 0l-152.301 152.2c-12.5996 12.5996 -3.69922 34.0996 14.1006 34.0996h87.7998v168c0 13.2998 10.7002 24 24 24z
M512 72v-112c0 -13.2998 -10.7002 -24 -24 -24h-464c-13.2998 0 -24 10.7002 -24 24v112c0 13.2998 10.7002 24 24 24h146.7l49 -49c20.0996 -20.0996 52.5 -20.0996 72.5996 0l49 49h146.7c13.2998 0 24 -10.7002 24 -24zM388 -16c0 11 -9 20 -20 20s-20 -9 -20 -20
s9 -20 20 -20s20 9 20 20zM452 -16c0 11 -9 20 -20 20s-20 -9 -20 -20s9 -20 20 -20s20 9 20 20z" />
    <glyph glyph-name="inbox" unicode="&#xf01c;" horiz-adv-x="576" 
d="M567.938 204.092c5.07422 -7.61035 8.06152 -16.7998 8.06152 -26.625v-129.467c0 -26.5098 -21.4902 -48 -48 -48h-480c-26.5098 0 -48 21.4902 -48 48v129.467c0 9.8252 2.9873 19.0146 8.06152 26.625l105.689 158.534c8.60742 12.9102 23.2725 21.374 39.9385 21.374
h268.621c16.667 0 31.332 -8.46387 39.9395 -21.374zM162.252 320l-85.334 -128h123.082l32 -64h112l32 64h123.082l-85.333 128h-251.497z" />
    <glyph glyph-name="list-alt" unicode="&#xf022;" 
d="M464 -32h-416c-26.5098 0 -48 21.4902 -48 48v352c0 26.5098 21.4902 48 48 48h416c26.5098 0 48 -21.4902 48 -48v-352c0 -26.5098 -21.4902 -48 -48 -48zM128 328c-22.0908 0 -40 -17.9092 -40 -40s17.9092 -40 40 -40s40 17.9092 40 40s-17.9092 40 -40 40zM128 232
c-22.0908 0 -40 -17.9092 -40 -40s17.9092 -40 40 -40s40 17.9092 40 40s-17.9092 40 -40 40zM128 136c-22.0908 0 -40 -17.9092 -40 -40s17.9092 -40 40 -40s40 17.9092 40 40s-17.9092 40 -40 40zM416 272v32c0 6.62695 -5.37305 12 -12 12h-200
c-6.62695 0 -12 -5.37305 -12 -12v-32c0 -6.62695 5.37305 -12 12 -12h200c6.62695 0 12 5.37305 12 12zM416 176v32c0 6.62695 -5.37305 12 -12 12h-200c-6.62695 0 -12 -5.37305 -12 -12v-32c0 -6.62695 5.37305 -12 12 -12h200c6.62695 0 12 5.37305 12 12zM416 80v32
c0 6.62695 -5.37305 12 -12 12h-200c-6.62695 0 -12 -5.37305 -12 -12v-32c0 -6.62695 5.37305 -12 12 -12h200c6.62695 0 12 5.37305 12 12z" />
    <glyph glyph-name="lock" unicode="&#xf023;" horiz-adv-x="448" 
d="M400 224c26.5 0 48 -21.5 48 -48v-192c0 -26.5 -21.5 -48 -48 -48h-352c-26.5 0 -48 21.5 -48 48v192c0 26.5 21.5 48 48 48h24v72c0 83.7998 68.2002 152 152 152s152 -68.2002 152 -152v-72h24zM296 224v72c0 39.7002 -32.2998 72 -72 72s-72 -32.2998 -72 -72v-72h144
z" />
    <glyph glyph-name="flag" unicode="&#xf024;" 
d="M349.565 349.217c40.4951 0 82.6113 15.9062 116.949 31.8545c21.2168 9.85352 45.4854 -5.62305 45.4854 -29.0166v-243.1c0 -10.5264 -5.16016 -20.4072 -13.8428 -26.3584c-35.8379 -24.5635 -74.3359 -40.8574 -122.505 -40.8574
c-67.373 0 -111.629 34.7832 -165.218 34.7832c-50.8525 0 -86.124 -10.0586 -114.435 -22.1221v-94.4004c0 -13.2549 -10.7451 -24 -24 -24h-16c-13.2549 0 -24 10.7451 -24 24v386.055c-14.5029 10.1201 -24 26.9189 -24 45.9453
c0 31.7041 26.3447 57.2539 58.3379 55.9521c28.4678 -1.1582 51.7793 -23.9668 53.5508 -52.4033c0.0761719 -1.19141 0.0927734 -2.37305 0.0927734 -3.58301c0 -7.03711 -1.30176 -13.7734 -3.67871 -19.9785c20.7363 7.62891 43.0898 12.0127 68.0449 12.0127
c67.373 0 111.63 -34.7832 165.218 -34.7832z" />
    <glyph glyph-name="headphones" unicode="&#xf025;" 
d="M256 416c141.504 0 256 -114.521 256 -256v-48c0 -12.5312 -7.1875 -23.3711 -17.6904 -28.6221l-14.3818 -7.19141c-2.01074 -60.0889 -51.3486 -108.187 -111.928 -108.187h-24c-13.2549 0 -24 10.7451 -24 24v176c0 13.2549 10.7451 24 24 24h24
c31.3418 0 59.6709 -12.8789 80 -33.627v1.62695c0 105.869 -86.1309 192 -192 192s-192 -86.1309 -192 -192v-1.62695c20.3291 20.748 48.6582 33.627 80 33.627h24c13.2549 0 24 -10.7451 24 -24v-176c0 -13.2549 -10.7451 -24 -24 -24h-24
c-60.5791 0 -109.917 48.0967 -111.928 108.187l-14.3828 7.19141c-10.502 5.25098 -17.6895 16.0908 -17.6895 28.6221v48c0 141.504 114.52 256 256 256z" />
    <glyph glyph-name="barcode" unicode="&#xf02a;" 
d="M0 0v384h18v-384h-18zM26.8574 0.273438v383.727h9.14258v-383.727h-9.14258zM54 0.273438v383.727h8.85742v-383.727h-8.85742zM98.8574 0.273438v383.727h8.85645v-383.727h-8.85645zM134.857 0.273438v383.727h17.7139v-383.727h-17.7139zM179.714 0.273438v383.727
h8.85742v-383.727h-8.85742zM197.714 0.273438v383.727h8.85742v-383.727h-8.85742zM215.714 0.273438v383.727h8.85742v-383.727h-8.85742zM251.429 0.273438v383.727h18v-383.727h-18zM296.286 0.273438v383.727h18v-383.727h-18zM332.285 0.273438v383.727h18.001
v-383.727h-18.001zM368.286 0.273438v383.727h18.001v-383.727h-18.001zM395.143 0.273438v383.727h18v-383.727h-18zM440.286 0.273438v383.727h26.8564v-383.727h-26.8564zM476 0.273438v383.727h9.14258v-383.727h-9.14258zM494 0v384h18v-384h-18z" />
    <glyph glyph-name="tag" unicode="&#xf02b;" 
d="M0 195.882v204.118c0 26.5098 21.4902 48 48 48h204.118c13.2461 0 25.252 -5.37012 33.9404 -14.0586l211.883 -211.883c18.7441 -18.7441 18.7441 -49.1367 0 -67.8818l-204.118 -204.118c-18.7451 -18.7441 -49.1377 -18.7441 -67.8818 0l-211.883 211.883
c-8.68848 8.68848 -14.0586 20.6943 -14.0586 33.9404zM112 384c-26.5098 0 -48 -21.4902 -48 -48s21.4902 -48 48 -48s48 21.4902 48 48s-21.4902 48 -48 48z" />
    <glyph glyph-name="book" unicode="&#xf02d;" horiz-adv-x="448" 
d="M448 88c0 -7.5 -3.5 -14.2998 -8.90039 -18.5996c-4.19922 -15.4004 -4.19922 -59.3008 0 -74.7002c5.40039 -4.40039 8.90039 -11.2002 8.90039 -18.7002v-16c0 -13.2998 -10.7002 -24 -24 -24h-328c-53 0 -96 43 -96 96v320c0 53 43 96 96 96h328
c13.2998 0 24 -10.7002 24 -24v-336zM128 314v-20c0 -3.2998 2.7002 -6 6 -6h212c3.2998 0 6 2.7002 6 6v20c0 3.2998 -2.7002 6 -6 6h-212c-3.2998 0 -6 -2.7002 -6 -6zM128 250v-20c0 -3.2998 2.7002 -6 6 -6h212c3.2998 0 6 2.7002 6 6v20c0 3.2998 -2.7002 6 -6 6h-212
c-3.2998 0 -6 -2.7002 -6 -6zM381.4 0c-1.90039 17.0996 -1.90039 46.9004 0 64h-285.4c-17.5996 0 -32 -14.4004 -32 -32c0 -17.7002 14.2998 -32 32 -32h285.4z" />
    <glyph glyph-name="camera" unicode="&#xf030;" 
d="M512 304v-288c0 -26.5 -21.5 -48 -48 -48h-416c-26.5 0 -48 21.5 -48 48v288c0 26.5 21.5 48 48 48h88l12.2998 32.9004c7 18.6992 24.9004 31.0996 44.9004 31.0996h125.5c20 0 37.8994 -12.4004 44.8994 -31.0996l12.4004 -32.9004h88c26.5 0 48 -21.5 48 -48zM376 160
c0 66.2002 -53.7998 120 -120 120s-120 -53.7998 -120 -120s53.7998 -120 120 -120s120 53.7998 120 120zM344 160c0 -48.5 -39.5 -88 -88 -88s-88 39.5 -88 88s39.5 88 88 88s88 -39.5 88 -88z" />
    <glyph glyph-name="pencil" unicode="&#xf040;" 
d="M497.9 305.9l-46.1006 -46.1006c-4.7002 -4.7002 -12.2998 -4.7002 -17 0l-111 111c-4.7002 4.7002 -4.7002 12.2998 0 17l46.1006 46.1006c18.6992 18.6992 49.0996 18.6992 67.8994 0l60.1006 -60.1006c18.7998 -18.7002 18.7998 -49.0996 0 -67.8994zM284.2 348.2
c4.7002 4.7002 12.2998 4.7002 17.0996 0l111 -111c4.7002 -4.7002 4.7002 -12.2998 0 -17l-262.6 -262.601l-121.5 -21.2998c-16.4004 -2.7998 -30.7002 11.4004 -27.7998 27.7998l21.1992 121.5zM88 24v48h-36.2998l-11.2998 -64.5l31.0996 -31.0996l64.5 11.2998v36.2998
h-48z" />
    <glyph glyph-name="map-marker" unicode="&#xf041;" horiz-adv-x="384" 
d="M172.268 -53.6699c-145.298 210.639 -172.268 232.257 -172.268 309.67c0 106.039 85.9609 192 192 192s192 -85.9609 192 -192c0 -77.4131 -26.9697 -99.0312 -172.268 -309.67c-9.53516 -13.7744 -29.9307 -13.7734 -39.4648 0z" />
    <glyph glyph-name="edit" unicode="&#xf044;" horiz-adv-x="576" 
d="M402.6 364.8l90.2002 -90.2002c3.7998 -3.7998 3.7998 -10 0 -13.7998l-218.399 -218.399l-92.8008 -10.3008c-12.3994 -1.39941 -22.8994 9.10059 -21.5 21.5l10.3008 92.8008l218.399 218.399c3.7998 3.7998 10 3.7998 13.7998 0zM564.6 387.7
c15.2002 -15.2002 15.2002 -39.9004 0 -55.2002l-35.3994 -35.4004c-3.7998 -3.7998 -10 -3.7998 -13.7998 0l-90.2002 90.2002c-3.7998 3.7998 -3.7998 10 0 13.7998l35.3994 35.4004c15.3008 15.2002 40 15.2002 55.2002 0zM384 101.8c0 3.2002 1.2998 6.2002 3.5 8.5
l40 40c7.59961 7.5 20.5 2.2002 20.5 -8.5v-157.8c0 -26.5 -21.5 -48 -48 -48h-352c-26.5 0 -48 21.5 -48 48v352c0 26.5 21.5 48 48 48h285.8c10.7002 0 16.1006 -12.9004 8.5 -20.5l-40 -40c-2.2998 -2.2002 -5.2998 -3.5 -8.5 -3.5h-229.8v-320h320v101.8z" />
    <glyph glyph-name="arrows" unicode="&#xf047;" 
d="M352.634 19.3789l-74.0068 -74.0068c-12.4971 -12.4971 -32.7578 -12.4971 -45.2549 0l-74.0068 74.0068c-9.37305 9.37305 -9.37305 24.5693 0 33.9414l10.8398 10.8398c9.55566 9.55566 25.1133 9.34082 34.4023 -0.474609l23.3926 -26.0508v126.365h-126.365
l26.0508 -23.3916c9.81543 -9.28906 10.0303 -24.8467 0.474609 -34.4023l-10.8398 -10.8398c-9.37305 -9.37305 -24.5693 -9.37305 -33.9414 0l-74.0059 74.0068c-12.4971 12.4971 -12.4971 32.7578 0 45.2549l74.0068 74.0068c9.37305 9.37305 24.5693 9.37305 33.9414 0
l10.8398 -10.8398c9.55566 -9.55566 9.34082 -25.1143 -0.474609 -34.4023l-26.0518 -23.3926h126.365v126.365l-23.3916 -26.0508c-9.28906 -9.81543 -24.8467 -10.0303 -34.4023 -0.474609l-10.8398 10.8398c-9.37305 9.37305 -9.37305 24.5693 0 33.9414l74.0068 74.0068
c12.4971 12.4971 32.7578 12.4971 45.2549 0l74.0068 -74.0068c9.37305 -9.37305 9.37305 -24.5693 0 -33.9414l-10.8398 -10.8398c-9.55566 -9.55566 -25.1133 -9.34082 -34.4023 0.474609l-23.3926 26.0508v-126.365h126.365l-26.0508 23.3916
c-9.81543 9.28906 -10.0303 24.8467 -0.474609 34.4023l10.8398 10.8398c9.37305 9.37305 24.5693 9.37305 33.9414 0l74.0068 -74.0068c12.4971 -12.4971 12.4971 -32.7578 0 -45.2549l-74.0068 -74.0068c-9.37305 -9.37305 -24.5693 -9.37305 -33.9414 0l-10.8398 10.8398
c-9.55566 9.55566 -9.34082 25.1133 0.474609 34.4023l26.0508 23.3926h-126.365v-126.365l23.3916 26.0508c9.28906 9.81543 24.8467 10.0303 34.4023 0.474609l10.8398 -10.8398c9.37305 -9.37207 9.37305 -24.5684 0 -33.9414z" />
    <glyph glyph-name="fast-backward" unicode="&#xf049;" 
d="M0 12v360c0 6.59961 5.40039 12 12 12h40c6.59961 0 12 -5.40039 12 -12v-151.9l171.5 156.5c20.5996 17.1006 52.5 2.80078 52.5 -24.5996v-131.9l171.5 156.5c20.5996 17.1006 52.5 2.80078 52.5 -24.5996v-320c0 -27.4004 -31.9004 -41.7002 -52.5 -24.5996
l-171.5 155.3v-130.7c0 -27.4004 -31.9004 -41.7002 -52.5 -24.5996l-171.5 155.3v-150.7c0 -6.59961 -5.40039 -12 -12 -12h-40c-6.59961 0 -12 5.40039 -12 12z" />
    <glyph glyph-name="backward" unicode="&#xf04a;" 
d="M11.5 167.4c-15.2998 12.7998 -15.2998 36.3994 0 49.1992l192 160c20.5996 17.2002 52.5 2.80078 52.5 -24.5996v-320c0 -27.4004 -31.9004 -41.7998 -52.5 -24.5996zM267.5 167.4c-15.2998 12.7998 -15.2998 36.3994 0 49.1992l192 160
c20.5996 17.2002 52.5 2.80078 52.5 -24.5996v-320c0 -27.4004 -31.9004 -41.7998 -52.5 -24.5996z" />
    <glyph glyph-name="forward" unicode="&#xf04e;" 
d="M500.5 216.6c15.2998 -12.7998 15.2998 -36.3994 0 -49.1992l-192 -160c-20.5996 -17.2002 -52.5 -2.80078 -52.5 24.5996v320c0 27.4004 31.9004 41.7002 52.5 24.5996zM244.5 216.6c15.2998 -12.7998 15.2998 -36.3994 0 -49.1992l-192 -160
c-20.5996 -17.2002 -52.5 -2.80078 -52.5 24.5996v320c0 27.4004 31.9004 41.7002 52.5 24.5996z" />
    <glyph glyph-name="fast-forward" unicode="&#xf050;" 
d="M512 372v-360c0 -6.59961 -5.40039 -12 -12 -12h-40c-6.59961 0 -12 5.40039 -12 12v151.9l-171.5 -156.5c-20.5996 -17.2002 -52.5 -2.80078 -52.5 24.5996v131.9l-171.5 -156.5c-20.5996 -17.2002 -52.5 -2.80078 -52.5 24.5996v320
c0 27.4004 31.9004 41.7002 52.5 24.5996l171.5 -155.399v130.8c0 27.4004 31.9004 41.7002 52.5 24.5996l171.5 -155.399v150.8c0 6.59961 5.40039 12 12 12h40c6.59961 0 12 -5.40039 12 -12z" />
    <glyph glyph-name="eject" unicode="&#xf052;" horiz-adv-x="448" 
d="M448 64v-64c0 -17.6729 -14.3271 -32 -32 -32h-384c-17.6729 0 -32 14.3271 -32 32v64c0 17.6729 14.3271 32 32 32h384c17.6729 0 32 -14.3271 32 -32zM48.0527 128c-41.7285 0 -63.5273 49.7324 -35.3828 80.4346l175.946 192.008
c19.0156 20.7432 51.7529 20.7422 70.7666 0l175.939 -192.008c28.1973 -30.7607 6.26758 -80.4346 -35.3828 -80.4346h-351.887z" />
    <glyph glyph-name="chevron-left" unicode="&#xf053;" horiz-adv-x="320" 
d="M34.5195 208.97l194.351 194.34c9.37012 9.37012 24.5703 9.37012 33.9395 0l22.6709 -22.6699c9.35938 -9.35938 9.36914 -24.5195 0.0390625 -33.8994l-154.029 -154.74l154.02 -154.75c9.33984 -9.37988 9.32031 -24.54 -0.0400391 -33.9004l-22.6699 -22.6699
c-9.37012 -9.37012 -24.5693 -9.37012 -33.9395 0l-194.341 194.351c-9.36914 9.37012 -9.36914 24.5693 0 33.9395z" />
    <glyph glyph-name="chevron-right" unicode="&#xf054;" horiz-adv-x="320" 
d="M285.476 175.029l-194.344 -194.344c-9.37305 -9.37207 -24.5684 -9.37207 -33.9404 0l-22.667 22.667c-9.35742 9.35742 -9.375 24.5225 -0.0400391 33.9014l154.021 154.746l-154.021 154.745c-9.33496 9.37891 -9.31738 24.5439 0.0400391 33.9014l22.667 22.667
c9.37305 9.37207 24.5684 9.37207 33.9404 0l194.343 -194.344c9.37305 -9.37207 9.37305 -24.5674 0.000976562 -33.9404z" />
    <glyph glyph-name="plus-circle" unicode="&#xf055;" 
d="M256 440c137 0 248 -111 248 -248s-111 -248 -248 -248s-248 111 -248 248s111 248 248 248zM400 164v56c0 6.59961 -5.40039 12 -12 12h-92v92c0 6.59961 -5.40039 12 -12 12h-56c-6.59961 0 -12 -5.40039 -12 -12v-92h-92c-6.59961 0 -12 -5.40039 -12 -12v-56
c0 -6.59961 5.40039 -12 12 -12h92v-92c0 -6.59961 5.40039 -12 12 -12h56c6.59961 0 12 5.40039 12 12v92h92c6.59961 0 12 5.40039 12 12z" />
    <glyph glyph-name="times-circle" unicode="&#xf057;" 
d="M256 440c137 0 248 -111 248 -248s-111 -248 -248 -248s-248 111 -248 248s111 248 248 248zM377.6 126.9l-65.5996 65.0996l65.7002 65c4.7002 4.7002 4.7002 12.2998 0 17l-39.6006 39.5996c-4.69922 4.7002 -12.2998 4.7002 -17 0l-65.0996 -65.5996l-65 65.7002
c-4.7002 4.7002 -12.2998 4.7002 -17 0l-39.5996 -39.6006c-4.7002 -4.69922 -4.7002 -12.2998 0 -17l65.5996 -65.0996l-65.5996 -65c-4.7002 -4.7002 -4.7002 -12.2998 0 -17l39.5 -39.5996c4.69922 -4.7002 12.2998 -4.7002 17 0l65.0996 65.5996l65 -65.5996
c4.7002 -4.7002 12.2998 -4.7002 17 0l39.5996 39.5c4.7002 4.69922 4.7002 12.2998 0 17z" />
    <glyph glyph-name="check-circle" unicode="&#xf058;" 
d="M504 192c0 -136.967 -111.033 -248 -248 -248s-248 111.033 -248 248s111.033 248 248 248s248 -111.033 248 -248zM227.314 60.6855l184 184c6.24707 6.24805 6.24707 16.3799 0 22.6279l-22.6279 22.627c-6.24707 6.24902 -16.3789 6.24902 -22.6279 0
l-150.059 -150.059l-70.0586 70.0596c-6.24805 6.24805 -16.3799 6.24805 -22.6279 0l-22.6279 -22.627c-6.24707 -6.24805 -6.24707 -16.3799 0 -22.6279l104 -104c6.24902 -6.24805 16.3799 -6.24805 22.6289 -0.000976562z" />
    <glyph glyph-name="question-circle" unicode="&#xf059;" 
d="M504 192c0 -136.997 -111.043 -248 -248 -248s-248 111.003 -248 248c0 136.917 111.043 248 248 248s248 -111.083 248 -248zM262.655 358c-54.4971 0 -89.2549 -22.957 -116.549 -63.7578c-3.53613 -5.28613 -2.35352 -12.415 2.71484 -16.2578l34.6982 -26.3105
c5.20508 -3.94727 12.6211 -3.00781 16.665 2.12207c17.8643 22.6582 30.1133 35.7969 57.3037 35.7969c20.4287 0 45.6973 -13.1475 45.6973 -32.958c0 -14.9756 -12.3623 -22.667 -32.5332 -33.9756c-23.5244 -13.1875 -54.6523 -29.6006 -54.6523 -70.6592v-4
c0 -6.62695 5.37305 -12 12 -12h56c6.62695 0 12 5.37305 12 12v1.33301c0 28.4619 83.1855 29.6475 83.1855 106.667c0 58.002 -60.1641 102 -116.53 102zM256 110c-25.3652 0 -46 -20.6348 -46 -46c0 -25.3643 20.6348 -46 46 -46s46 20.6357 46 46
c0 25.3652 -20.6348 46 -46 46z" />
    <glyph glyph-name="info-circle" unicode="&#xf05a;" 
d="M256 440c136.957 0 248 -111.083 248 -248c0 -136.997 -111.043 -248 -248 -248s-248 111.003 -248 248c0 136.917 111.043 248 248 248zM256 330c-23.1963 0 -42 -18.8037 -42 -42s18.8037 -42 42 -42s42 18.8037 42 42s-18.8037 42 -42 42zM312 76v24
c0 6.62695 -5.37305 12 -12 12h-12v100c0 6.62695 -5.37305 12 -12 12h-64c-6.62695 0 -12 -5.37305 -12 -12v-24c0 -6.62695 5.37305 -12 12 -12h12v-64h-12c-6.62695 0 -12 -5.37305 -12 -12v-24c0 -6.62695 5.37305 -12 12 -12h88c6.62695 0 12 5.37305 12 12z" />
    <glyph glyph-name="crosshairs" unicode="&#xf05b;" 
d="M500 224c6.62695 0 12 -5.37305 12 -12v-40c0 -6.62695 -5.37305 -12 -12 -12h-30.3643c-13.9121 -93.6748 -87.9609 -167.724 -181.636 -181.636v-30.3643c0 -6.62695 -5.37305 -12 -12 -12h-40c-6.62695 0 -12 5.37305 -12 12v30.3643
c-93.6748 13.9121 -167.724 87.9609 -181.636 181.636h-30.3643c-6.62695 0 -12 5.37305 -12 12v40c0 6.62695 5.37305 12 12 12h30.3643c13.9121 93.6748 87.9609 167.724 181.636 181.636v30.3643c0 6.62695 5.37305 12 12 12h40c6.62695 0 12 -5.37305 12 -12v-30.3643
c93.6748 -13.9121 167.724 -87.9609 181.636 -181.636h30.3643zM288 43.3662c58.2432 12.417 104.232 58.46 116.634 116.634h-40.6338c-6.62695 0 -12 5.37305 -12 12v40c0 6.62695 5.37305 12 12 12h40.6338c-12.417 58.2432 -58.46 104.232 -116.634 116.634v-40.6338
c0 -6.62695 -5.37305 -12 -12 -12h-40c-6.62695 0 -12 5.37305 -12 12v40.6338c-58.2432 -12.417 -104.232 -58.46 -116.634 -116.634h40.6338c6.62695 0 12 -5.37305 12 -12v-40c0 -6.62695 -5.37305 -12 -12 -12h-40.6338
c12.417 -58.2432 58.46 -104.232 116.634 -116.634v40.6338c0 6.62695 5.37305 12 12 12h40c6.62695 0 12 -5.37305 12 -12v-40.6338zM288 192c0 -17.6729 -14.3271 -32 -32 -32s-32 14.3271 -32 32s14.3271 32 32 32s32 -14.3271 32 -32z" />
    <glyph glyph-name="ban" unicode="&#xf05e;" 
d="M256 440c136.967 0 248 -111.034 248 -248s-111.034 -248 -248 -248s-248 111.033 -248 248s111.034 248 248 248zM386.108 322.108c-65.4121 65.4102 -165.435 70.0312 -235.639 20.6758l256.315 -256.313c49.3232 70.1562 44.7705 170.189 -20.6768 235.638z
M125.892 61.8916c65.4121 -65.4111 165.436 -70.0312 235.639 -20.6758l-256.315 256.313c-49.3232 -70.1562 -44.7705 -170.189 20.6768 -235.638z" />
    <glyph glyph-name="arrow-left" unicode="&#xf060;" horiz-adv-x="448" 
d="M257.5 2.90039l-22.2002 -22.2002c-9.39941 -9.40039 -24.5996 -9.40039 -33.8994 0l-194.4 194.3c-9.40039 9.40039 -9.40039 24.5996 0 33.9004l194.4 194.399c9.39941 9.40039 24.5996 9.40039 33.8994 0l22.2002 -22.2002c9.5 -9.5 9.2998 -25 -0.400391 -34.2998
l-120.5 -114.8h287.4c13.2998 0 24 -10.7002 24 -24v-32c0 -13.2998 -10.7002 -24 -24 -24h-287.4l120.5 -114.8c9.80078 -9.2998 10 -24.7998 0.400391 -34.2998z" />
    <glyph glyph-name="arrow-right" unicode="&#xf061;" horiz-adv-x="448" 
d="M190.5 381.1l22.2002 22.2002c9.39941 9.40039 24.5996 9.40039 33.8994 0l194.4 -194.3c9.40039 -9.40039 9.40039 -24.5996 0 -33.9004l-194.4 -194.399c-9.39941 -9.40039 -24.5996 -9.40039 -33.8994 0l-22.2002 22.2002c-9.5 9.5 -9.2998 25 0.400391 34.2998
l120.5 114.8h-287.4c-13.2998 0 -24 10.7002 -24 24v32c0 13.2998 10.7002 24 24 24h287.4l-120.5 114.8c-9.80078 9.2998 -10 24.7998 -0.400391 34.2998z" />
    <glyph glyph-name="arrow-up" unicode="&#xf062;" horiz-adv-x="448" 
d="M34.9004 158.5l-22.2002 22.2002c-9.40039 9.39941 -9.40039 24.5996 0 33.8994l194.3 194.4c9.40039 9.40039 24.5996 9.40039 33.9004 0l194.3 -194.3c9.39941 -9.40039 9.39941 -24.6006 0 -33.9004l-22.2002 -22.2002c-9.5 -9.5 -25 -9.2998 -34.2998 0.400391
l-114.7 120.4v-287.4c0 -13.2998 -10.7002 -24 -24 -24h-32c-13.2998 0 -24 10.7002 -24 24v287.4l-114.8 -120.5c-9.2998 -9.80078 -24.7998 -10 -34.2998 -0.400391z" />
    <glyph glyph-name="arrow-down" unicode="&#xf063;" horiz-adv-x="448" 
d="M413.1 225.5l22.2002 -22.2002c9.40039 -9.39941 9.40039 -24.5996 0 -33.8994l-194.3 -194.4c-9.40039 -9.40039 -24.5996 -9.40039 -33.9004 0l-194.399 194.4c-9.40039 9.39941 -9.40039 24.5996 0 33.8994l22.2002 22.2002c9.5 9.5 25 9.2998 34.2998 -0.400391
l114.8 -120.5v287.4c0 13.2998 10.7002 24 24 24h32c13.2998 0 24 -10.7002 24 -24v-287.4l114.8 120.5c9.2998 9.80078 24.7998 10 34.2998 0.400391z" />
    <glyph glyph-name="share" unicode="&#xf064;" 
d="M503.691 258.164c11.0859 -9.5752 11.0703 -26.7656 0 -36.3281l-176.005 -152c-15.3867 -13.2891 -39.6865 -2.53613 -39.6865 18.1641v87.915c-155.083 -2.23145 -221.934 -40.7295 -176.59 -185.742c5.03418 -16.0977 -14.4238 -28.5615 -28.0771 -18.6309
c-43.752 31.8232 -83.333 92.6914 -83.333 154.132c0 152.227 127.371 184.419 288 186.258v80.0537c0 20.668 24.2812 31.4688 39.6865 18.1641z" />
    <glyph glyph-name="expand" unicode="&#xf065;" horiz-adv-x="448" 
d="M0 268v124c0 13.2998 10.7002 24 24 24h124c6.59961 0 12 -5.40039 12 -12v-40c0 -6.59961 -5.40039 -12 -12 -12h-84v-84c0 -6.59961 -5.40039 -12 -12 -12h-40c-6.59961 0 -12 5.40039 -12 12zM288 404c0 6.59961 5.40039 12 12 12h124c13.2998 0 24 -10.7002 24 -24
v-124c0 -6.59961 -5.40039 -12 -12 -12h-40c-6.59961 0 -12 5.40039 -12 12v84h-84c-6.59961 0 -12 5.40039 -12 12v40zM436 128c6.59961 0 12 -5.40039 12 -12v-124c0 -13.2998 -10.7002 -24 -24 -24h-124c-6.59961 0 -12 5.40039 -12 12v40c0 6.59961 5.40039 12 12 12h84
v84c0 6.59961 5.40039 12 12 12h40zM160 -20c0 -6.59961 -5.40039 -12 -12 -12h-124c-13.2998 0 -24 10.7002 -24 24v124c0 6.59961 5.40039 12 12 12h40c6.59961 0 12 -5.40039 12 -12v-84h84c6.59961 0 12 -5.40039 12 -12v-40z" />
    <glyph glyph-name="compress" unicode="&#xf066;" horiz-adv-x="448" 
d="M436 256h-124c-13.2998 0 -24 10.7002 -24 24v124c0 6.59961 5.40039 12 12 12h40c6.59961 0 12 -5.40039 12 -12v-84h84c6.59961 0 12 -5.40039 12 -12v-40c0 -6.59961 -5.40039 -12 -12 -12zM160 280c0 -13.2998 -10.7002 -24 -24 -24h-124
c-6.59961 0 -12 5.40039 -12 12v40c0 6.59961 5.40039 12 12 12h84v84c0 6.59961 5.40039 12 12 12h40c6.59961 0 12 -5.40039 12 -12v-124zM160 -20c0 -6.59961 -5.40039 -12 -12 -12h-40c-6.59961 0 -12 5.40039 -12 12v84h-84c-6.59961 0 -12 5.40039 -12 12v40
c0 6.59961 5.40039 12 12 12h124c13.2998 0 24 -10.7002 24 -24v-124zM352 -20c0 -6.59961 -5.40039 -12 -12 -12h-40c-6.59961 0 -12 5.40039 -12 12v124c0 13.2998 10.7002 24 24 24h124c6.59961 0 12 -5.40039 12 -12v-40c0 -6.59961 -5.40039 -12 -12 -12h-84v-84z" />
    <glyph glyph-name="minus" unicode="&#xf068;" horiz-adv-x="448" 
d="M416 240c17.6699 0 32 -14.3301 32 -32v-32c0 -17.6699 -14.3301 -32 -32 -32h-384c-17.6699 0 -32 14.3301 -32 32v32c0 17.6699 14.3301 32 32 32h384z" />
    <glyph glyph-name="asterisk" unicode="&#xf069;" 
d="M478.21 113.907c11.7949 -6.47754 15.96 -21.3828 9.23242 -33.0361l-19.4805 -33.7412c-6.72754 -11.6533 -21.7207 -15.499 -33.2266 -8.52246l-138.735 84.1104l3.47559 -162.204c0.288086 -13.4531 -10.5391 -24.5137 -23.9941 -24.5137h-38.9619
c-13.4551 0 -24.2822 11.0605 -23.9941 24.5137l3.47461 162.204l-138.735 -84.1113c-11.5059 -6.97656 -26.499 -3.13086 -33.2266 8.52246l-19.4805 33.7412c-6.72852 11.6533 -2.5625 26.5596 9.23242 33.0371l142.21 78.0928l-142.209 78.0918
c-11.7949 6.47754 -15.9609 21.3838 -9.2334 33.0371l19.4805 33.7412c6.72754 11.6533 21.7207 15.499 33.2266 8.52246l138.735 -84.1104l-3.47363 162.204c-0.289062 13.4531 10.5381 24.5137 23.9932 24.5137h38.9609c13.4561 0 24.2822 -11.0605 23.9941 -24.5137
l-3.47461 -162.204l138.735 84.1113c11.5068 6.97656 26.499 3.13086 33.2266 -8.52246l19.4805 -33.7412c6.72852 -11.6533 2.5625 -26.5596 -9.23242 -33.0371l-142.21 -78.0928z" />
    <glyph glyph-name="exclamation-circle" unicode="&#xf06a;" 
d="M504 192c0 -136.997 -111.043 -248 -248 -248s-248 111.003 -248 248c0 136.917 111.043 248 248 248s248 -111.083 248 -248zM256 142c-25.4053 0 -46 -20.5947 -46 -46s20.5947 -46 46 -46s46 20.5947 46 46s-20.5947 46 -46 46zM212.327 307.346l7.41797 -136
c0.34668 -6.36328 5.6084 -11.3457 11.9814 -11.3457h48.5469c6.37305 0 11.6348 4.98242 11.9814 11.3457l7.41797 136c0.375 6.87402 -5.09766 12.6543 -11.9814 12.6543h-63.3838c-6.88379 0 -12.3555 -5.78027 -11.9805 -12.6543z" />
    <glyph glyph-name="random" unicode="&#xf074;" 
d="M504.971 88.9707c9.37305 -9.37305 9.37305 -24.5684 0 -33.9404l-80 -79.9844c-15.0098 -15.0098 -40.9707 -4.49023 -40.9707 16.9707v39.9834h-58.7852c-3.46094 0 -6.58105 1.46484 -8.77246 3.81152l-70.5566 75.5967l53.333 57.1426l52.7812 -56.5508h32v39.9814
c0 21.4375 25.9434 31.9971 40.9707 16.9707zM12 272c-6.62695 0 -12 5.37305 -12 12v56c0 6.62695 5.37305 12 12 12h110.785c3.46094 0 6.58203 -1.46484 8.77246 -3.81152l70.5566 -75.5967l-53.333 -57.1426l-52.7812 56.5508h-84zM384 272h-32l-220.442 -236.188
c-2.26953 -2.43066 -5.44629 -3.81152 -8.77246 -3.81152h-110.785c-6.62695 0 -12 5.37305 -12 12v56c0 6.62695 5.37305 12 12 12h84l220.442 236.188c2.19141 2.34668 5.31152 3.81152 8.77246 3.81152h58.7852v39.9814c0 21.4365 25.9434 31.9971 40.9707 16.9697
l80 -79.9814c9.37305 -9.37207 9.37305 -24.5674 0 -33.9404l-80 -79.9844c-15.0098 -15.0088 -40.9707 -4.48926 -40.9707 16.9707v39.9844z" />
    <glyph glyph-name="chevron-up" unicode="&#xf077;" horiz-adv-x="448" 
d="M240.971 317.476l194.344 -194.343c9.37207 -9.37305 9.37207 -24.5684 0 -33.9404l-22.667 -22.667c-9.35742 -9.35742 -24.5225 -9.375 -33.9014 -0.0400391l-154.746 154.02l-154.745 -154.021c-9.37891 -9.33496 -24.5439 -9.31738 -33.9014 0.0400391
l-22.667 22.667c-9.37207 9.37305 -9.37207 24.5684 0 33.9404l194.344 194.343c9.37207 9.37305 24.5674 9.37305 33.9404 0.000976562z" />
    <glyph glyph-name="chevron-down" unicode="&#xf078;" horiz-adv-x="448" 
d="M207.029 66.5244l-194.344 194.344c-9.37207 9.37305 -9.37207 24.5684 0 33.9404l22.667 22.667c9.35742 9.35742 24.5225 9.375 33.9014 0.0400391l154.746 -154.021l154.745 154.021c9.37891 9.33496 24.5439 9.31738 33.9014 -0.0400391l22.667 -22.667
c9.37207 -9.37305 9.37207 -24.5684 0 -33.9404l-194.343 -194.344c-9.37305 -9.37207 -24.5684 -9.37207 -33.9414 0z" />
    <glyph glyph-name="retweet" unicode="&#xf079;" horiz-adv-x="640" 
d="M629.657 104.402l-100.687 -100.687c-9.37305 -9.37207 -24.5674 -9.37207 -33.9404 0l-100.688 100.687c-9.37305 9.37305 -9.37305 24.5684 0 33.9404l10.8232 10.8232c9.56152 9.56152 25.1328 9.33984 34.4189 -0.492188l40.415 -42.792v182.118h-187.549
c-6.62305 0 -12.626 2.68555 -16.9707 7.0293l-16 16c-15.1191 15.1201 -4.41113 40.9707 16.9707 40.9707h243.549c13.2549 0 24 -10.7451 24 -24v-222.118l40.416 42.792c9.28516 9.83105 24.8564 10.0537 34.4189 0.492188l10.8232 -10.8232
c9.37207 -9.37207 9.37207 -24.5684 -0.000976562 -33.9404zM364.519 88.9707l16.001 -16c15.1191 -15.1201 4.41113 -40.9707 -16.9707 -40.9707h-243.549c-13.2549 0 -24 10.7451 -24 24v222.119l-40.416 -42.793c-9.28613 -9.83105 -24.8574 -10.0527 -34.4189 -0.491211
l-10.8223 10.8223c-9.37305 9.37207 -9.37305 24.5674 0 33.9404l100.688 100.687c9.37207 9.37305 24.5674 9.37305 33.9404 0l100.687 -100.686c9.37305 -9.37207 9.37305 -24.5674 0 -33.9404l-10.8223 -10.8223c-9.5625 -9.5625 -25.1328 -9.33984 -34.4189 0.491211
l-40.416 42.792v-182.119h187.548c6.62305 0 12.627 -2.68457 16.9707 -7.0293z" />
    <glyph glyph-name="shopping-cart" unicode="&#xf07a;" horiz-adv-x="576" 
d="M528.12 146.681c-2.4834 -10.9268 -12.1973 -18.6807 -23.4033 -18.6807h-293.145l6.54492 -32h268.418c15.4004 0 26.8154 -14.3008 23.4033 -29.3193l-5.51758 -24.2754c18.6914 -9.07324 31.5791 -28.2334 31.5791 -50.4053c0 -30.9277 -25.0723 -56 -56 -56
s-56 25.0723 -56 56c0 15.6738 6.44727 29.835 16.8232 40h-209.647c10.377 -10.165 16.8242 -24.3262 16.8242 -40c0 -30.9277 -25.0723 -56 -56 -56s-56 25.0723 -56 56c0 20.7783 11.3252 38.9004 28.1309 48.5654l-70.248 343.435h-69.8828
c-13.2549 0 -24 10.7451 -24 24v16c0 13.2549 10.7451 24 24 24h102.529c11.4004 0 21.2285 -8.02148 23.5127 -19.1904l9.16602 -44.8096h392.782c15.4004 0 26.8154 -14.3008 23.4023 -29.3193z" />
    <glyph glyph-name="folder-open" unicode="&#xf07c;" horiz-adv-x="576" 
d="M572.694 155.907l-72.4248 -124.155c-11.0967 -19.0244 -31.6865 -31.752 -55.2803 -31.752h-399.964c-18.5234 0 -30.0645 20.0928 -20.7314 36.0928l72.4238 124.155c11.0986 19.0244 31.6875 31.752 55.2822 31.752h399.964
c18.5234 0 30.0645 -20.0928 20.7305 -36.0928zM152 224c-34.0107 0 -65.7861 -18.25 -82.9229 -47.6279l-69.0771 -118.418v278.046c0 26.5098 21.4902 48 48 48h160l64 -64h160c26.5098 0 48 -21.4902 48 -48v-48h-328z" />
    <glyph glyph-name="arrows-v" unicode="&#xf07d;" horiz-adv-x="256" 
d="M160 41.8145l43.7285 46.208c9.28906 9.81445 24.8467 10.0293 34.4023 0.473633l10.8398 -10.8398c9.37305 -9.37207 9.37305 -24.5684 0 -33.9414l-98.3428 -98.3428c-12.4971 -12.4971 -32.7578 -12.4971 -45.2549 0l-98.3428 98.3428
c-9.37305 9.37207 -9.37305 24.5684 0 33.9414l10.8398 10.8398c9.55566 9.55566 25.1133 9.34082 34.4023 -0.473633l43.7275 -46.208v300.37l-43.7285 -46.207c-9.28906 -9.81445 -24.8467 -10.0293 -34.4023 -0.473633l-10.8398 10.8398
c-9.37305 9.37207 -9.37305 24.5684 0 33.9414l98.3428 98.3418c12.4971 12.4971 32.7578 12.4971 45.2549 0l98.3428 -98.3428c9.37305 -9.37207 9.37305 -24.5684 0 -33.9414l-10.8398 -10.8398c-9.55566 -9.55566 -25.1133 -9.34082 -34.4023 0.473633l-43.7275 46.208
v-300.37z" />
    <glyph glyph-name="arrows-h" unicode="&#xf07e;" 
d="M105.815 160l46.208 -43.7275c9.81445 -9.28906 10.0293 -24.8467 0.473633 -34.4023l-10.8398 -10.8398c-9.37207 -9.37305 -24.5684 -9.37305 -33.9414 0l-98.3428 98.3428c-12.4971 12.4971 -12.4971 32.7578 0 45.2549l98.3428 98.3418
c9.37207 9.37305 24.5684 9.37305 33.9414 0l10.8398 -10.8398c9.55566 -9.55566 9.34082 -25.1133 -0.473633 -34.4023l-46.208 -43.7275h300.37l-46.208 43.7285c-9.81445 9.28906 -10.0293 24.8467 -0.473633 34.4023l10.8398 10.8398
c9.37207 9.37305 24.5684 9.37305 33.9414 0l98.3428 -98.3428c12.4971 -12.4971 12.4971 -32.7578 0 -45.2549l-98.3428 -98.3428c-9.37207 -9.37305 -24.5684 -9.37305 -33.9414 0l-10.8398 10.8398c-9.55566 9.55566 -9.34082 25.1133 0.473633 34.4023l46.208 43.7275
h-300.37z" />
    <glyph glyph-name="cogs" unicode="&#xf085;" horiz-adv-x="640" 
d="M512.1 257l-8.19922 -14.2998c-3 -5.2998 -9.40039 -7.5 -15.1006 -5.40039c-11.7998 4.40039 -22.5996 10.7002 -32.0996 18.6006c-4.60059 3.7998 -5.7998 10.5 -2.7998 15.6992l8.19922 14.3008c-6.89941 8 -12.2998 17.2998 -15.8994 27.3994h-16.5
c-6 0 -11.2002 4.2998 -12.2002 10.2998c-2 12 -2.09961 24.6006 0 37.1006c1 6 6.2002 10.3994 12.2002 10.3994h16.5c3.59961 10.1006 9 19.4004 15.8994 27.4004l-8.19922 14.2998c-3 5.2002 -1.90039 11.9004 2.7998 15.7002
c9.5 7.90039 20.3994 14.2002 32.0996 18.5996c5.7002 2.10059 12.1006 -0.0996094 15.1006 -5.39941l8.19922 -14.2998c10.5 1.89941 21.2002 1.89941 31.7002 0l8.2002 14.2998c3 5.2998 9.40039 7.5 15.0996 5.39941c11.8008 -4.39941 22.6006 -10.6992 32.1006 -18.5996
c4.59961 -3.7998 5.7998 -10.5 2.7998 -15.7002l-8.2002 -14.2998c6.90039 -8 12.2998 -17.2998 15.9004 -27.4004h16.5c6 0 11.2002 -4.2998 12.2002 -10.2998c2 -12 2.09961 -24.5996 0 -37.0996c-1 -6 -6.2002 -10.4004 -12.2002 -10.4004h-16.5
c-3.60059 -10.0996 -9 -19.3994 -15.9004 -27.3994l8.2002 -14.3008c3 -5.19922 1.90039 -11.8994 -2.7998 -15.6992c-9.5 -7.90039 -20.4004 -14.2002 -32.1006 -18.6006c-5.69922 -2.09961 -12.0996 0.100586 -15.0996 5.40039l-8.2002 14.2998
c-10.3994 -1.90039 -21.2002 -1.90039 -31.7002 0zM501.6 315.8c38.5 -29.5996 82.4004 14.2998 52.8008 52.7998c-38.5 29.7002 -82.4004 -14.2998 -52.8008 -52.7998zM386.3 161.9l33.7002 -16.8008c10.0996 -5.7998 14.5 -18.0996 10.5 -29.0996
c-8.90039 -24.2002 -26.4004 -46.4004 -42.5996 -65.7998c-7.40039 -8.90039 -20.2002 -11.1006 -30.3008 -5.2998l-29.0996 16.7998c-16 -13.7002 -34.5996 -24.6006 -54.9004 -31.7002v-33.5996c0 -11.6006 -8.2998 -21.6006 -19.6992 -23.6006
c-24.6006 -4.2002 -50.4004 -4.39941 -75.9004 0c-11.5 2 -20 11.9004 -20 23.6006v33.5996c-20.2998 7.2002 -38.9004 18 -54.9004 31.7002l-29.0996 -16.7002c-10 -5.7998 -22.9004 -3.59961 -30.2998 5.2998c-16.2002 19.4004 -33.2998 41.6006 -42.2002 65.7002
c-4 10.9004 0.400391 23.2002 10.5 29.0996l33.2998 16.8008c-3.89941 20.8994 -3.89941 42.3994 0 63.3994l-33.2998 16.9004c-10.0996 5.7998 -14.5996 18.0996 -10.5 29c8.90039 24.2002 26 46.3994 42.2002 65.7998c7.39941 8.90039 20.2002 11.0996 30.2998 5.2998
l29.0996 -16.7998c16 13.7002 34.6006 24.5996 54.9004 31.7002v33.7002c0 11.5 8.2002 21.5 19.5996 23.5c24.6006 4.19922 50.5 4.39941 76 0.0996094c11.5 -2 20 -11.9004 20 -23.5996v-33.6006c20.3008 -7.2002 38.9004 -18 54.9004 -31.7002l29.0996 16.8008
c10 5.7998 22.9004 3.59961 30.3008 -5.30078c16.1992 -19.3994 33.1992 -41.5996 42.0996 -65.7998c4 -10.8994 0.0996094 -23.2002 -10 -29.0996l-33.7002 -16.7998c3.90039 -21 3.90039 -42.5 0 -63.5zM268.7 140.8c59.2002 77 -28.7002 164.9 -105.7 105.7
c-59.2002 -77 28.7002 -164.9 105.7 -105.7zM512.1 -41.9004l-8.19922 -14.2998c-3 -5.2998 -9.40039 -7.5 -15.1006 -5.39941c-11.7998 4.39941 -22.5996 10.6992 -32.0996 18.5996c-4.60059 3.7998 -5.7998 10.5 -2.7998 15.7002l8.19922 14.2998
c-6.89941 8 -12.2998 17.2998 -15.8994 27.4004h-16.5c-6 0 -11.2002 4.2998 -12.2002 10.2998c-2 12 -2.09961 24.5996 0 37.0996c1 6 6.2002 10.4004 12.2002 10.4004h16.5c3.59961 10.0996 9 19.3994 15.8994 27.3994l-8.19922 14.3008
c-3 5.19922 -1.90039 11.8994 2.7998 15.6992c9.5 7.90039 20.3994 14.2002 32.0996 18.6006c5.7002 2.09961 12.1006 -0.100586 15.1006 -5.40039l8.19922 -14.2998c10.5 1.90039 21.2002 1.90039 31.7002 0l8.2002 14.2998c3 5.2998 9.40039 7.5 15.0996 5.40039
c11.8008 -4.40039 22.6006 -10.7002 32.1006 -18.6006c4.59961 -3.7998 5.7998 -10.5 2.7998 -15.6992l-8.2002 -14.3008c6.90039 -8 12.2998 -17.2998 15.9004 -27.3994h16.5c6 0 11.2002 -4.2998 12.2002 -10.2998c2 -12 2.09961 -24.6006 0 -37.1006
c-1 -6 -6.2002 -10.3994 -12.2002 -10.3994h-16.5c-3.60059 -10.1006 -9 -19.4004 -15.9004 -27.4004l8.2002 -14.2998c3 -5.2002 1.90039 -11.9004 -2.7998 -15.7002c-9.5 -7.90039 -20.4004 -14.2002 -32.1006 -18.5996
c-5.69922 -2.10059 -12.0996 0.0996094 -15.0996 5.39941l-8.2002 14.2998c-10.3994 -1.89941 -21.2002 -1.89941 -31.7002 0zM501.6 17c38.5 -29.5996 82.4004 14.2998 52.8008 52.7998c-38.5 29.6006 -82.4004 -14.2998 -52.8008 -52.7998z" />
    <glyph glyph-name="star-half" unicode="&#xf089;" horiz-adv-x="576" 
d="M288 448v-439.6l-130.7 -68.6006c-23.3994 -12.2998 -50.8994 7.60059 -46.3994 33.7002l25 145.5l-105.7 103c-19 18.5 -8.5 50.7998 17.7002 54.5996l146.1 21.2002l65.2998 132.4c5.90039 11.8994 17.2998 17.7998 28.7002 17.7998z" />
    <glyph glyph-name="sign-out" unicode="&#xf08b;" 
d="M180 0h-84c-53 0 -96 43 -96 96v192c0 53 43 96 96 96h84c6.59961 0 12 -5.40039 12 -12v-40c0 -6.59961 -5.40039 -12 -12 -12h-84c-17.7002 0 -32 -14.2998 -32 -32v-192c0 -17.7002 14.2998 -32 32 -32h84c6.59961 0 12 -5.40039 12 -12v-40
c0 -6.59961 -5.40039 -12 -12 -12zM297.9 303.1c-10 9.2002 -10.4004 25 -0.700195 34.6006l21.8994 21.8994c9.40039 9.40039 24.5 9.40039 33.9004 0.100586l151.9 -150.601c9.5 -9.39941 9.5 -24.6992 0 -34.0996l-152 -150.8
c-9.40039 -9.2998 -24.6006 -9.2002 -33.9004 0.0996094l-21.9004 21.9004c-9.59961 9.7002 -9.2998 25.5 0.800781 34.7002l77.5996 71.0996h-191.5c-13.2998 0 -24 10.7002 -24 24v32c0 13.2998 10.7002 24 24 24h191.5z" />
    <glyph glyph-name="sign-in" unicode="&#xf090;" 
d="M137.2 337.7l21.8994 21.8994c9.30078 9.30078 24.5 9.40039 33.9004 0.100586l151.9 -150.7c9.5 -9.40039 9.5 -24.7002 0 -34.0996l-151.9 -150.601c-9.40039 -9.2998 -24.5 -9.2998 -33.9004 0.100586l-21.8994 21.8994
c-9.7002 9.7002 -9.2998 25.4004 0.799805 34.7002l77.5996 71.0996h-191.6c-13.2998 0 -24 10.7002 -24 24v32c0 13.3008 10.7002 24 24 24h191.5l-77.5996 71.1006c-10 9.09961 -10.4004 24.8994 -0.700195 34.5zM512 96c0 -53 -43 -96 -96 -96h-84
c-6.59961 0 -12 5.40039 -12 12v40c0 6.59961 5.40039 12 12 12h84c17.7002 0 32 14.2998 32 32v192c0 17.7002 -14.2998 32 -32 32h-84c-6.59961 0 -12 5.40039 -12 12v40c0 6.59961 5.40039 12 12 12h84c53 0 96 -43 96 -96v-192z" />
    <glyph glyph-name="upload" unicode="&#xf093;" 
d="M296 64h-80c-13.2998 0 -24 10.7002 -24 24v168h-87.7002c-17.7998 0 -26.7002 21.5 -14.0996 34.0996l152.1 152.2c7.5 7.5 19.7998 7.5 27.2998 0l152.2 -152.2c12.6006 -12.5996 3.7002 -34.0996 -14.0996 -34.0996h-87.7002v-168c0 -13.2998 -10.7002 -24 -24 -24z
M512 72v-112c0 -13.2998 -10.7002 -24 -24 -24h-464c-13.2998 0 -24 10.7002 -24 24v112c0 13.2998 10.7002 24 24 24h136v-8c0 -30.9004 25.0996 -56 56 -56h80c30.9004 0 56 25.0996 56 56v8h136c13.2998 0 24 -10.7002 24 -24zM388 -16c0 11 -9 20 -20 20s-20 -9 -20 -20
s9 -20 20 -20s20 9 20 20zM452 -16c0 11 -9 20 -20 20s-20 -9 -20 -20s9 -20 20 -20s20 9 20 20z" />
    <glyph glyph-name="lemon" unicode="&#xf094;" 
d="M489.038 425.037c23.0938 -23.0938 28.8916 -54.3906 16.833 -75.0928c-34.3115 -58.9043 53.0762 -181.249 -86.7461 -321.071s-262.167 -52.4326 -321.068 -86.7432c-20.7031 -12.0586 -52 -6.2627 -75.0947 16.832c-23.0928 23.0938 -28.8916 54.3906 -16.833 75.0928
c34.3125 58.9043 -53.0781 181.247 86.7451 321.07s262.167 52.4336 321.073 86.7461c20.7012 12.0586 51.9971 6.25879 75.0908 -16.834zM243.881 352.478c8.57227 2.14355 13.7832 10.8291 11.6416 19.4023c-2.14258 8.57324 -10.8281 13.7852 -19.4033 11.6426
c-69.8027 -17.4521 -154.218 -101.949 -171.643 -171.643c-2.1416 -8.57324 3.07031 -17.2588 11.6426 -19.4033c1.30273 -0.324219 2.6084 -0.480469 3.89258 -0.480469c7.16895 0 13.6943 4.85352 15.5117 12.124c14.5498 58.2031 90.1689 133.811 148.357 148.357z" />
    <glyph glyph-name="phone-square" unicode="&#xf098;" horiz-adv-x="448" 
d="M400 416c26.5098 0 48 -21.4902 48 -48v-352c0 -26.5098 -21.4902 -48 -48 -48h-352c-26.5098 0 -48 21.4902 -48 48v352c0 26.5098 21.4902 48 48 48h352zM94 32c160.055 0 290 129.708 290 290c0 7.11621 -4.97559 13.0801 -11.6279 14.6143l-65 14.998
c-1.08691 0.250977 -2.20312 0.394531 -3.36621 0.394531c-6.18457 0 -11.501 -3.75195 -13.7939 -9.10156l-30 -69.998c-0.775391 -1.81055 -1.22266 -3.81055 -1.22266 -5.90332c0 -4.68066 2.14844 -8.86328 5.51172 -11.6152l37.8857 -30.9971
c-22.4834 -47.9219 -61.8369 -87.8164 -110.78 -110.779l-30.9971 37.8848c-2.75195 3.36328 -6.94043 5.49414 -11.6211 5.49414c-2.09277 0 -4.08691 -0.429688 -5.89746 -1.20508l-69.998 -29.999c-5.34961 -2.29297 -9.08984 -7.59375 -9.08984 -13.7783
c0 -1.16309 0.131836 -2.29492 0.382812 -3.38184l14.998 -65c1.55957 -6.75391 7.58301 -11.627 14.6162 -11.627z" />
    <glyph glyph-name="unlock" unicode="&#xf09c;" horiz-adv-x="448" 
d="M400 192c26.5 0 48 -21.5 48 -48v-160c0 -26.5 -21.5 -48 -48 -48h-352c-26.5 0 -48 21.5 -48 48v160c0 26.5 21.5 48 48 48h24v102.5c0 84 67.5 153.2 151.5 153.5s152.5 -68 152.5 -152v-16c0 -13.2998 -10.7002 -24 -24 -24h-32c-13.2998 0 -24 10.7002 -24 24v16
c0 39.9004 -32.7002 72.4004 -72.7002 72c-39.5996 -0.400391 -71.2998 -33.2998 -71.2998 -72.9004v-103.1h248z" />
    <glyph glyph-name="credit-card" unicode="&#xf09d;" horiz-adv-x="576" 
d="M0 16v176h576v-176c0 -26.5 -21.5 -48 -48 -48h-480c-26.5 0 -48 21.5 -48 48zM192 84v-40c0 -6.59961 5.40039 -12 12 -12h136c6.59961 0 12 5.40039 12 12v40c0 6.59961 -5.40039 12 -12 12h-136c-6.59961 0 -12 -5.40039 -12 -12zM64 84v-40
c0 -6.59961 5.40039 -12 12 -12h72c6.59961 0 12 5.40039 12 12v40c0 6.59961 -5.40039 12 -12 12h-72c-6.59961 0 -12 -5.40039 -12 -12zM576 368v-48h-576v48c0 26.5 21.5 48 48 48h480c26.5 0 48 -21.5 48 -48z" />
    <glyph glyph-name="rss" unicode="&#xf09e;" horiz-adv-x="448" 
d="M128.081 32.041c0 -35.3691 -28.6719 -64.041 -64.041 -64.041s-64.04 28.6719 -64.04 64.041s28.6719 64.041 64.041 64.041s64.04 -28.6729 64.04 -64.041zM303.741 -15.209c0.494141 -9.13477 -6.84668 -16.791 -15.9951 -16.79h-48.0693
c-8.41406 0 -15.4707 6.49023 -16.0176 14.8867c-7.29883 112.07 -96.9404 201.488 -208.772 208.772c-8.39648 0.545898 -14.8867 7.60254 -14.8867 16.0176v48.0693c0 9.14746 7.65625 16.4883 16.791 15.9941c154.765 -8.36328 278.596 -132.351 286.95 -286.95z
M447.99 -15.4971c0.324219 -9.03027 -6.97168 -16.5029 -16.0049 -16.5039h-48.0684c-8.62598 0 -15.6455 6.83496 -15.999 15.4531c-7.83789 191.148 -161.286 344.626 -352.465 352.465c-8.61816 0.354492 -15.4531 7.37402 -15.4531 15.999v48.0684
c0 9.03418 7.47266 16.3301 16.5029 16.0059c234.962 -8.43555 423.093 -197.667 431.487 -431.487z" />
    <glyph glyph-name="hand-point-right" unicode="&#xf0a4;" 
d="M512 248.348c0 -23.625 -20.6504 -43.8252 -44.7998 -43.8252h-99.8516c16.3408 -17.0488 18.3467 -49.7666 -6.29883 -70.9443c14.2881 -22.8291 2.14746 -53.0176 -16.4502 -62.3154c8.97461 -49.1406 -21.9453 -71.2627 -72.5996 -71.2627
c-2.74609 0 -13.2764 0.203125 -16 0.195312c-61.9707 -0.167969 -76.8936 31.0645 -123.731 38.3145c-11.6729 1.80762 -20.2686 11.8916 -20.2686 23.7041v171.525l0.00195312 0.000976562c0.0107422 18.3662 10.6074 35.8887 28.4639 43.8447
c28.8857 12.9941 95.4131 49.0381 107.534 77.3232c7.79688 18.1934 21.3838 29.084 40 29.0918c34.2217 0.0136719 57.752 -35.0977 44.1191 -66.9082c-3.58301 -8.3584 -8.3125 -16.6699 -14.1533 -24.918h149.234c23.4502 0 44.7998 -20.543 44.7998 -43.8262zM96 248
v-192c0 -13.2549 -10.7451 -24 -24 -24h-48c-13.2549 0 -24 10.7451 -24 24v192c0 13.2549 10.7451 24 24 24h48c13.2549 0 24 -10.7451 24 -24zM68 80c0 11.0459 -8.9541 20 -20 20s-20 -8.9541 -20 -20s8.9541 -20 20 -20s20 8.9541 20 20z" />
    <glyph glyph-name="hand-point-left" unicode="&#xf0a5;" 
d="M44.7998 292.174h149.234c-5.84082 8.24805 -10.5703 16.5586 -14.1533 24.918c-13.6328 31.8105 9.89746 66.9219 44.1191 66.9082c18.6162 -0.0078125 32.2031 -10.8975 40 -29.0918c12.1221 -28.2861 78.6484 -64.3291 107.534 -77.3232
c17.8564 -7.95605 28.4531 -25.4785 28.4639 -43.8447l0.00195312 -0.000976562v-171.526c0 -11.8115 -8.5957 -21.8965 -20.2686 -23.7031c-46.8379 -7.25 -61.7607 -38.4824 -123.731 -38.3145c-2.72363 0.00683594 -13.2539 -0.195312 -16 -0.195312
c-50.6543 0 -81.5742 22.1221 -72.5996 71.2627c-18.5977 9.29688 -30.7383 39.4863 -16.4502 62.3154c-24.6455 21.1768 -22.6396 53.8955 -6.29883 70.9443h-99.8516c-24.1494 0 -44.7998 20.2002 -44.7998 43.8252c0 23.2832 21.3496 43.8262 44.7998 43.8262zM440 272
h48c13.2549 0 24 -10.7451 24 -24v-192c0 -13.2549 -10.7451 -24 -24 -24h-48c-13.2549 0 -24 10.7451 -24 24v192c0 13.2549 10.7451 24 24 24zM464 60c11.0459 0 20 8.9541 20 20s-8.9541 20 -20 20s-20 -8.9541 -20 -20s8.9541 -20 20 -20z" />
    <glyph glyph-name="hand-point-up" unicode="&#xf0a6;" horiz-adv-x="384" 
d="M135.652 448c23.625 0 43.8252 -20.6504 43.8252 -44.7998v-99.8516c17.0488 16.3408 49.7666 18.3467 70.9443 -6.29883c22.8291 14.2881 53.0176 2.14746 62.3154 -16.4502c49.1406 8.97461 71.2627 -21.9453 71.2627 -72.5996
c0 -2.74609 -0.203125 -13.2764 -0.195312 -16c0.167969 -61.9707 -31.0645 -76.8936 -38.3145 -123.731c-1.80762 -11.6729 -11.8916 -20.2686 -23.7041 -20.2686h-171.525l-0.000976562 0.00195312c-18.3662 0.0107422 -35.8887 10.6074 -43.8447 28.4639
c-12.9941 28.8857 -49.0381 95.4121 -77.3232 107.534c-18.1943 7.79688 -29.084 21.3838 -29.0918 40c-0.0136719 34.2217 35.0977 57.752 66.9082 44.1191c8.3584 -3.58301 16.6699 -8.3125 24.918 -14.1533v149.234c0 23.4502 20.543 44.7998 43.8262 44.7998zM136 32
h192c13.2549 0 24 -10.7451 24 -24v-48c0 -13.2549 -10.7451 -24 -24 -24h-192c-13.2549 0 -24 10.7451 -24 24v48c0 13.2549 10.7451 24 24 24zM304 4c-11.0459 0 -20 -8.9541 -20 -20s8.9541 -20 20 -20s20 8.9541 20 20s-8.9541 20 -20 20z" />
    <glyph glyph-name="hand-point-down" unicode="&#xf0a7;" horiz-adv-x="384" 
d="M91.8262 -19.2002v149.234c-8.24805 -5.84082 -16.5586 -10.5703 -24.918 -14.1533c-31.8105 -13.6328 -66.9219 9.89746 -66.9082 44.1191c0.0078125 18.6162 10.8975 32.2031 29.0918 40c28.2861 12.1221 64.3291 78.6484 77.3232 107.534
c7.95605 17.8564 25.4785 28.4531 43.8447 28.4639l0.000976562 0.00195312h171.526c11.8115 0 21.8965 -8.5957 23.7031 -20.2686c7.25 -46.8379 38.4824 -61.7607 38.3145 -123.731c-0.00683594 -2.72363 0.195312 -13.2539 0.195312 -16
c0 -50.6543 -22.1221 -81.5742 -71.2627 -72.5996c-9.29688 -18.5977 -39.4863 -30.7383 -62.3154 -16.4502c-21.1768 -24.6455 -53.8955 -22.6396 -70.9443 -6.29883v-99.8516c0 -24.1494 -20.2002 -44.7998 -43.8252 -44.7998
c-23.2832 0 -43.8262 21.3496 -43.8262 44.7998zM112 376v48c0 13.2549 10.7451 24 24 24h192c13.2549 0 24 -10.7451 24 -24v-48c0 -13.2549 -10.7451 -24 -24 -24h-192c-13.2549 0 -24 10.7451 -24 24zM324 400c0 11.0459 -8.9541 20 -20 20s-20 -8.9541 -20 -20
s8.9541 -20 20 -20s20 8.9541 20 20z" />
    <glyph glyph-name="arrow-circle-left" unicode="&#xf0a8;" 
d="M256 -56c-137 0 -248 111 -248 248s111 248 248 248s248 -111 248 -248s-111 -248 -248 -248zM284.9 87.5996l-75.5 72.4004h182.6c13.2998 0 24 10.7002 24 24v16c0 13.2998 -10.7002 24 -24 24h-182.6l75.5 72.4004c9.69922 9.2998 9.89941 24.7998 0.399414 34.2998
l-11 10.8994c-9.39941 9.40039 -24.5996 9.40039 -33.8994 0l-132.7 -132.6c-9.40039 -9.40039 -9.40039 -24.5996 0 -33.9004l132.7 -132.699c9.39941 -9.40039 24.5996 -9.40039 33.8994 0l11 10.8994c9.5 9.5 9.2998 25 -0.399414 34.2998z" />
    <glyph glyph-name="arrow-circle-right" unicode="&#xf0a9;" 
d="M256 440c137 0 248 -111 248 -248s-111 -248 -248 -248s-248 111 -248 248s111 248 248 248zM227.1 296.4l75.5 -72.4004h-182.6c-13.2998 0 -24 -10.7002 -24 -24v-16c0 -13.2998 10.7002 -24 24 -24h182.6l-75.5 -72.4004
c-9.69922 -9.2998 -9.89941 -24.7998 -0.399414 -34.2998l11 -10.8994c9.39941 -9.40039 24.5996 -9.40039 33.8994 0l132.7 132.6c9.40039 9.40039 9.40039 24.5996 0 33.9004l-132.7 132.8c-9.39941 9.39941 -24.5996 9.39941 -33.8994 0l-11 -10.9004
c-9.5 -9.59961 -9.2998 -25.0996 0.399414 -34.3994z" />
    <glyph glyph-name="arrow-circle-up" unicode="&#xf0aa;" 
d="M8 192c0 137 111 248 248 248s248 -111 248 -248s-111 -248 -248 -248s-248 111 -248 248zM151.6 163.1l72.4004 75.5v-182.6c0 -13.2998 10.7002 -24 24 -24h16c13.2998 0 24 10.7002 24 24v182.6l72.4004 -75.5c9.2998 -9.69922 24.7998 -9.89941 34.2998 -0.399414
l10.8994 11c9.40039 9.39941 9.40039 24.5996 0 33.8994l-132.6 132.7c-9.40039 9.40039 -24.5996 9.40039 -33.9004 0l-132.8 -132.7c-9.39941 -9.39941 -9.39941 -24.5996 0 -33.8994l10.9004 -11c9.59961 -9.5 25.0996 -9.2998 34.3994 0.399414z" />
    <glyph glyph-name="arrow-circle-down" unicode="&#xf0ab;" 
d="M504 192c0 -137 -111 -248 -248 -248s-248 111 -248 248s111 248 248 248s248 -111 248 -248zM360.4 220.9l-72.4004 -75.5v182.6c0 13.2998 -10.7002 24 -24 24h-16c-13.2998 0 -24 -10.7002 -24 -24v-182.6l-72.4004 75.5
c-9.2998 9.69922 -24.7998 9.89941 -34.2998 0.399414l-10.8994 -11c-9.40039 -9.39941 -9.40039 -24.5996 0 -33.8994l132.6 -132.7c9.40039 -9.40039 24.5996 -9.40039 33.9004 0l132.699 132.7c9.40039 9.39941 9.40039 24.5996 0 33.8994l-10.8994 11
c-9.5 9.5 -25 9.2998 -34.2998 -0.399414z" />
    <glyph glyph-name="arrows-alt" unicode="&#xf0b2;" 
d="M352.201 22.2246l-79.1963 -79.1953c-9.37305 -9.37305 -24.5684 -9.37305 -33.9404 0l-79.1963 79.1953c-15.1191 15.1191 -4.41113 40.9717 16.9707 40.9707h51.1621l-0.000976562 100.805h-100.804v-51.1621c0 -21.3818 -25.8516 -32.0898 -40.9717 -16.9707
l-79.1953 79.1963c-9.37305 9.37207 -9.37305 24.5684 0 33.9404l79.1953 79.1963c15.1191 15.1191 40.9717 4.41113 40.9717 -16.9717v-51.2285h100.804v100.804h-51.2305c-21.3818 0 -32.0898 25.8516 -16.9707 40.9717l79.1963 79.1953
c9.37305 9.37305 24.5684 9.37305 33.9404 0l79.1963 -79.1953c15.1191 -15.1191 4.41113 -40.9717 -16.9707 -40.9717h-51.1621v-100.804h100.804v51.1621c0 21.3818 25.8516 32.0898 40.9707 16.9707l79.1953 -79.1963c9.37305 -9.37207 9.37305 -24.5684 0 -33.9404
l-79.1953 -79.1963c-15.1191 -15.1191 -40.9717 -4.41113 -40.9707 16.9717v51.2285h-100.803v-100.804h51.2305c21.3818 0 32.0898 -25.8516 16.9707 -40.9717z" />
    <glyph glyph-name="link" unicode="&#xf0c1;" 
d="M326.612 262.609c59.7471 -59.8096 58.9268 -155.698 0.359375 -214.591c-0.109375 -0.119141 -0.239258 -0.25 -0.359375 -0.369141l-67.2002 -67.2002c-59.2705 -59.2705 -155.699 -59.2627 -214.96 0c-59.2705 59.2598 -59.2705 155.7 0 214.96l37.1055 37.1055
c9.84082 9.84082 26.7861 3.30078 27.2939 -10.6055c0.648438 -17.7227 3.82617 -35.5273 9.69043 -52.7207c1.98633 -5.82227 0.567383 -12.2627 -3.7832 -16.6123l-13.0869 -13.0869c-28.0254 -28.0264 -28.9053 -73.6602 -1.15527 -101.96
c28.0244 -28.5791 74.0859 -28.749 102.325 -0.510742l67.2002 67.1904c28.1914 28.1914 28.0732 73.7568 0 101.83c-3.70117 3.69434 -7.42871 6.56348 -10.3408 8.56934c-4.05078 2.78125 -6.74707 7.37402 -6.94727 12.6055
c-0.395508 10.5674 3.34766 21.4561 11.6982 29.8057l21.0537 21.0557c5.52148 5.52051 14.1826 6.19922 20.584 1.73047c7.38574 -5.15723 14.1709 -10.8447 20.5225 -17.1963zM467.547 403.551c59.2705 -59.2598 59.2705 -155.7 -0.000976562 -214.959l-37.1055 -37.1055
c-9.84082 -9.83984 -26.7852 -3.30078 -27.2939 10.6055c-0.648438 17.7227 -3.82617 35.5273 -9.69043 52.7217c-1.98633 5.82129 -0.567383 12.2617 3.7832 16.6113l13.0869 13.0869c28.0264 28.0264 28.9053 73.6602 1.15527 101.96
c-28.0254 28.5791 -74.0869 28.749 -102.325 0.510742l-67.2002 -67.1904c-28.1914 -28.1914 -28.0732 -73.7568 0 -101.83c3.70117 -3.69434 7.42871 -6.56348 10.3408 -8.56934c4.05078 -2.78125 6.74707 -7.37402 6.94727 -12.6055
c0.395508 -10.5674 -3.34766 -21.4561 -11.6982 -29.8057l-21.0537 -21.0557c-5.52051 -5.51953 -14.1826 -6.19922 -20.584 -1.73047c-7.38574 5.15625 -14.1699 10.8447 -20.5215 17.1953c-59.7471 59.8096 -58.9258 155.698 -0.359375 214.591
c0.109375 0.119141 0.239258 0.25 0.359375 0.369141l67.2002 67.2002c59.2705 59.2705 155.699 59.2627 214.96 0z" />
    <glyph glyph-name="flask" unicode="&#xf0c3;" horiz-adv-x="448" 
d="M437.2 44.5c29.2998 -47 -4.40039 -108.5 -60.1006 -108.5h-306.199c-55.6006 0 -89.4004 61.4004 -60.1006 108.5l117.2 188.5v151h-8c-13.2998 0 -24 10.7002 -24 24v16c0 13.2998 10.7002 24 24 24h208c13.2998 0 24 -10.7002 24 -24v-16
c0 -13.2998 -10.7002 -24 -24 -24h-8v-151zM137.9 128h172l-48.2002 77.5996c-3.60059 5.2002 -5.7998 11.5 -5.7998 18.4004v160h-64v-160c0 -6.7998 -2.10059 -13.2002 -5.80078 -18.4004z" />
    <glyph glyph-name="paperclip" unicode="&#xf0c6;" horiz-adv-x="448" 
d="M43.2461 -18.1416c-58.4297 60.2891 -57.3408 157.511 1.38574 217.581l209.76 214.561c44.3164 45.332 116.352 45.3359 160.672 0c43.8896 -44.8936 43.9424 -117.329 0 -162.276l-182.85 -186.852c-29.8545 -30.5371 -78.6328 -30.1113 -107.981 0.998047
c-28.2754 29.9697 -27.3682 77.4727 1.45117 106.953l143.743 146.835c6.18262 6.31348 16.3125 6.42188 22.626 0.241211l22.8613 -22.3799c6.31445 -6.18164 6.42188 -16.3115 0.241211 -22.626l-143.729 -146.82c-4.93164 -5.04492 -5.23535 -13.4287 -0.647461 -18.292
c4.37207 -4.63379 11.2451 -4.71094 15.6875 -0.165039l182.85 186.851c19.6123 20.0625 19.6123 52.7256 -0.0117188 72.7979c-19.1885 19.627 -49.957 19.6377 -69.1533 0l-209.762 -214.56c-34.7627 -35.5605 -35.2988 -93.1201 -1.19043 -128.313
c34.0098 -35.0928 88.9844 -35.1367 123.058 -0.285156l172.061 175.999c6.17676 6.31836 16.3066 6.43262 22.626 0.255859l22.877 -22.3643c6.31836 -6.17676 6.43359 -16.3066 0.255859 -22.626l-172.061 -175.998c-59.5752 -60.9385 -155.942 -60.2158 -214.77 0.485352
z" />
    <glyph glyph-name="bars" unicode="&#xf0c9;" horiz-adv-x="448" 
d="M16 316c-8.83691 0 -16 7.16309 -16 16v40c0 8.83691 7.16309 16 16 16h416c8.83691 0 16 -7.16309 16 -16v-40c0 -8.83691 -7.16309 -16 -16 -16h-416zM16 156c-8.83691 0 -16 7.16309 -16 16v40c0 8.83691 7.16309 16 16 16h416c8.83691 0 16 -7.16309 16 -16v-40
c0 -8.83691 -7.16309 -16 -16 -16h-416zM16 -4c-8.83691 0 -16 7.16309 -16 16v40c0 8.83691 7.16309 16 16 16h416c8.83691 0 16 -7.16309 16 -16v-40c0 -8.83691 -7.16309 -16 -16 -16h-416z" />
    <glyph glyph-name="table" unicode="&#xf0ce;" 
d="M464 416c26.5098 0 48 -21.4902 48 -48v-352c0 -26.5098 -21.4902 -48 -48 -48h-416c-26.5098 0 -48 21.4902 -48 48v352c0 26.5098 21.4902 48 48 48h416zM224 32v96h-160v-96h160zM224 192v96h-160v-96h160zM448 32v96h-160v-96h160zM448 192v96h-160v-96h160z" />
    <glyph glyph-name="caret-down" unicode="&#xf0d7;" horiz-adv-x="320" 
d="M31.2998 256h257.3c17.8008 0 26.7002 -21.5 14.1006 -34.0996l-128.601 -128.7c-7.7998 -7.7998 -20.5 -7.7998 -28.2998 0l-128.6 128.7c-12.6006 12.5996 -3.7002 34.0996 14.0996 34.0996z" />
    <glyph glyph-name="caret-up" unicode="&#xf0d8;" horiz-adv-x="320" 
d="M288.662 96h-257.324c-17.8184 0 -26.7412 21.543 -14.1416 34.1416l128.662 128.662c7.80957 7.81055 20.4736 7.81055 28.2832 0l128.662 -128.662c12.6006 -12.5986 3.67676 -34.1416 -14.1416 -34.1416z" />
    <glyph glyph-name="caret-left" unicode="&#xf0d9;" horiz-adv-x="192" 
d="M192 320.662v-257.324c0 -17.8184 -21.543 -26.7412 -34.1416 -14.1416l-128.662 128.662c-7.81055 7.80957 -7.81055 20.4736 0 28.2832l128.662 128.662c12.5986 12.6006 34.1416 3.67676 34.1416 -14.1416z" />
    <glyph glyph-name="caret-right" unicode="&#xf0da;" horiz-adv-x="192" 
d="M0 63.3379v257.324c0 17.8184 21.543 26.7412 34.1416 14.1416l128.662 -128.662c7.81055 -7.80957 7.81055 -20.4736 0 -28.2832l-128.662 -128.662c-12.5986 -12.6006 -34.1416 -3.67676 -34.1416 14.1416z" />
    <glyph glyph-name="columns" unicode="&#xf0db;" 
d="M464 416c26.5098 0 48 -21.4902 48 -48v-352c0 -26.5098 -21.4902 -48 -48 -48h-416c-26.5098 0 -48 21.4902 -48 48v352c0 26.5098 21.4902 48 48 48h416zM224 32v256h-160v-256h160zM448 32v256h-160v-256h160z" />
    <glyph glyph-name="undo" unicode="&#xf0e2;" 
d="M212.333 223.667h-200.333c-6.62695 0 -12 5.37305 -12 12v200.333c0 6.62695 5.37305 12 12 12h48c6.62695 0 12 -5.37305 12 -12v-78.1123c45.7734 50.833 112.26 82.6426 186.175 82.1055c136.906 -0.994141 246.448 -111.623 246.157 -248.532
c-0.291016 -136.719 -111.212 -247.461 -247.999 -247.461c-64.0889 0 -122.496 24.3135 -166.51 64.2148c-5.09961 4.62207 -5.33398 12.5537 -0.466797 17.4199l33.9668 33.9668c4.47363 4.47461 11.6621 4.71777 16.4004 0.525391
c31.0361 -27.4629 71.8564 -44.127 116.609 -44.127c97.2676 0 176 78.7158 176 176c0 97.2666 -78.7158 176 -176 176c-58.4961 0 -110.28 -28.4756 -142.274 -72.333h98.2744c6.62695 0 12 -5.37305 12 -12v-48c0 -6.62695 -5.37305 -12 -12 -12z" />
    <glyph glyph-name="gavel" unicode="&#xf0e3;" 
d="M504.971 248.638c9.37207 -9.37305 9.37207 -24.5684 0 -33.9404l-124.451 -124.451c-9.37109 -9.37305 -24.5674 -9.37305 -33.9404 0l-22.627 22.627c-9.37305 9.37207 -9.37305 24.5684 0 33.9414l5.65723 5.65625l-39.5986 39.5986l-81.04 -81.04l5.65723 -5.65723
c12.4971 -12.4971 12.4971 -32.7578 0 -45.2549l-114.745 -114.745c-12.4971 -12.4971 -32.7578 -12.4971 -45.2549 0l-45.2549 45.2549c-12.4971 12.4971 -12.4971 32.7578 0 45.2549l114.744 114.746c12.4971 12.4971 32.7578 12.4971 45.2549 0l5.65723 -5.65723
l81.04 81.04l-39.5986 39.5986l-5.65625 -5.65723c-9.37207 -9.37305 -24.5684 -9.37305 -33.9414 0l-22.627 22.627c-9.37305 9.37207 -9.37305 24.5684 0 33.9404l124.451 124.451c9.37207 9.37305 24.5674 9.37305 33.9404 0l22.627 -22.6279
c9.37305 -9.37207 9.37305 -24.5674 0 -33.9404l-5.65625 -5.65723l113.138 -113.137l5.65723 5.65625c9.37207 9.37305 24.5674 9.37305 33.9404 0z" />
    <glyph glyph-name="umbrella" unicode="&#xf0e9;" horiz-adv-x="576" 
d="M575.7 167.2c2.2002 -10.1006 -8.40039 -21.4004 -18.7002 -11.4004c-51.5 54.4004 -107.6 52.5 -158.6 -37c-5.30078 -9.5 -14.9004 -8.59961 -19.7002 0c-2.5 4.40039 -32.2002 73.2002 -90.7002 73.2002c-45.7998 0 -70.5 -37.7998 -90.7002 -73.2002
c-4.7998 -8.59961 -14.3994 -9.5 -19.7002 0c-50.8994 89.4004 -106.6 92 -158.6 37c-10.2002 -9.89941 -20.9004 1.2998 -18.7002 11.4004c29.2002 136.3 138 218.2 255.7 230.899v17.9004c0 17.7002 14.2998 32 32 32s32 -14.2998 32 -32v-17.9004
c117.3 -12.6992 227.1 -94.5996 255.7 -230.899zM256 146.3c9.59961 8.90039 19.7002 13.6006 32 13.7002c12.2002 0 22.9004 -5.7002 32 -13.5996v-130.301c0 -44.0996 -35.9004 -80 -80 -80c-33.7998 0 -64.2002 21.4004 -75.4004 53.3008
c-5.89941 16.5996 2.80078 34.8994 19.5 40.7998c16.7002 5.89941 34.9004 -2.7998 40.8008 -19.5c1.89941 -5.40039 7.2998 -10.7002 15.0996 -10.7002c8.7998 0 16 7.2002 16 16v130.3z" />
    <glyph glyph-name="paste" unicode="&#xf0ea;" horiz-adv-x="448" 
d="M128 264v-232h-104c-13.2549 0 -24 10.7451 -24 24v336c0 13.2549 10.7451 24 24 24h80.6104c11.084 19.1104 31.7529 32 55.3896 32s44.3057 -12.8896 55.3896 -32h80.6104c13.2549 0 24 -10.7451 24 -24v-72h-136c-30.8779 0 -56 -25.1211 -56 -56zM160 408
c-13.2549 0 -24 -10.7451 -24 -24s10.7451 -24 24 -24s24 10.7451 24 24s-10.7451 24 -24 24zM344 160h104v-200c0 -13.2549 -10.7451 -24 -24 -24h-240c-13.2549 0 -24 10.7451 -24 24v304c0 13.2549 10.7451 24 24 24h136v-104c0 -13.2002 10.7998 -24 24 -24z
M448 198.059v-6.05859h-96v96h6.05859c6.62305 0 12.626 -2.68457 16.9707 -7.0293l65.9404 -65.9404c4.34473 -4.34473 7.03027 -10.3477 7.03027 -16.9717z" />
    <glyph glyph-name="exchange" unicode="&#xf0ec;" 
d="M0 280v16c0 13.2549 10.7451 24 24 24h381.97l-30.4668 27.7275c-9.81445 9.28906 -10.0303 24.8467 -0.473633 34.4023l10.8398 10.8398c9.37305 9.37305 24.5674 9.37305 33.9404 0l82.8174 -82.3428c12.4971 -12.4971 12.4971 -32.7578 0 -45.2549l-82.8174 -82.3428
c-9.37305 -9.37305 -24.5684 -9.37305 -33.9404 0l-10.8398 10.8398c-9.55664 9.55566 -9.34082 25.1143 0.473633 34.4023l30.4668 27.7285h-381.97c-13.2549 0 -24 10.7451 -24 24zM488 128c13.2549 0 24 -10.7451 24 -24v-16c0 -13.2549 -10.7451 -24 -24 -24h-381.97
l30.4668 -27.7285c9.81445 -9.28906 10.0303 -24.8467 0.473633 -34.4023l-10.8398 -10.8398c-9.37207 -9.37305 -24.5674 -9.37305 -33.9404 0l-82.8174 82.3428c-12.4971 12.4971 -12.4971 32.7578 0 45.2549l82.8174 82.3428c9.37305 9.37305 24.5674 9.37305 33.9404 0
l10.8398 -10.8398c9.55664 -9.55566 9.34082 -25.1133 -0.473633 -34.4023l-30.4668 -27.7275h381.97z" />
    <glyph glyph-name="coffee" unicode="&#xf0f4;" horiz-adv-x="640" 
d="M192 64c-53 0 -96 43 -96 96v232c0 13.2998 10.7002 24 24 24h392c70.5996 0 128 -57.4004 128 -128s-57.4004 -128 -128 -128h-32c0 -53 -43 -96 -96 -96h-192zM512 352h-32v-128h32c35.2998 0 64 28.7002 64 64s-28.7002 64 -64 64zM559.7 -32h-511.4
c-47.5996 0 -61 64 -36 64h583.3c25 0 11.8008 -64 -35.8994 -64z" />
    <glyph glyph-name="hospital" unicode="&#xf0f8;" horiz-adv-x="448" 
d="M448 -44v-20h-448v20c0 6.62695 5.37305 12 12 12h20v360c0 13.2549 10.7451 24 24 24h88v72c0 13.2549 10.7451 24 24 24h112c13.2549 0 24 -10.7451 24 -24v-72h88c13.2549 0 24 -10.7451 24 -24v-360h20c6.62695 0 12 -5.37305 12 -12zM308 256h-40
c-6.62695 0 -12 -5.37305 -12 -12v-40c0 -6.62695 5.37305 -12 12 -12h40c6.62695 0 12 5.37305 12 12v40c0 6.62695 -5.37305 12 -12 12zM140 192h40c6.62695 0 12 5.37305 12 12v40c0 6.62695 -5.37305 12 -12 12h-40c-6.62695 0 -12 -5.37305 -12 -12v-40
c0 -6.62695 5.37305 -12 12 -12zM244 64h-40c-6.62695 0 -12 -5.37305 -12 -12v-84h64v84c0 6.62695 -5.37305 12 -12 12zM308 160h-40c-6.62695 0 -12 -5.37305 -12 -12v-40c0 -6.62695 5.37305 -12 12 -12h40c6.62695 0 12 5.37305 12 12v40c0 6.62695 -5.37305 12 -12 12
zM192 148c0 6.62695 -5.37305 12 -12 12h-40c-6.62695 0 -12 -5.37305 -12 -12v-40c0 -6.62695 5.37305 -12 12 -12h40c6.62695 0 12 5.37305 12 12v40zM182 352h26v-26c0 -3.31152 2.68848 -6 6 -6h20c3.31152 0 6 2.68848 6 6v26h26c3.31152 0 6 2.68848 6 6v20
c0 3.31152 -2.68848 6 -6 6h-26v26c0 3.31152 -2.68848 6 -6 6h-20c-3.31152 0 -6 -2.68848 -6 -6v-26h-26c-3.31152 0 -6 -2.68848 -6 -6v-20c0 -3.31152 2.68848 -6 6 -6z" />
    <glyph glyph-name="medkit" unicode="&#xf0fa;" 
d="M96 -32v352h32v48c0 26.5098 21.4902 48 48 48h160c26.5098 0 48 -21.4902 48 -48v-48h32v-352h-320zM192 352v-32h128v32h-128zM512 272v-256c0 -26.5098 -21.4902 -48 -48 -48h-16v352h16c26.5098 0 48 -21.4902 48 -48zM64 -32h-16c-26.5098 0 -48 21.4902 -48 48v256
c0 26.5098 21.4902 48 48 48h16v-352zM352 176c0 8.83691 -7.16309 16 -16 16h-48v48c0 8.83691 -7.16309 16 -16 16h-32c-8.83691 0 -16 -7.16309 -16 -16v-48h-48c-8.83691 0 -16 -7.16309 -16 -16v-32c0 -8.83691 7.16309 -16 16 -16h48v-48
c0 -8.83691 7.16309 -16 16 -16h32c8.83691 0 16 7.16309 16 16v48h48c8.83691 0 16 7.16309 16 16v32z" />
    <glyph glyph-name="fighter-jet" unicode="&#xf0fb;" horiz-adv-x="640" 
d="M544 224c96 -21.333 96 -26.583 96 -32s0 -10.667 -96 -32l-128 -16l-48 -16h-24l-116.842 -148h39.5088c11.666 0 21.333 -2.625 21.333 -6s-9.66602 -6 -21.333 -6h-114.667v12h16v164h-48l-66.666 -80h-34.667l-10.667 10.667v69.333h8v16h48v2.66699l-64 8v42.667
l64 8v2.66602h-48v16h-8v69.333l10.667 10.667h34.666l66.667 -80h48v164h-16v12h114.667c11.666 0 21.333 -2.625 21.333 -6s-9.66699 -6 -21.333 -6h-39.5088l116.842 -148h24l48 -16z" />
    <glyph glyph-name="beer" unicode="&#xf0fc;" horiz-adv-x="448" 
d="M368 352c44.1123 0 80 -35.8877 80 -80v-128.86c0 -31.5273 -18.6035 -60.2031 -47.3936 -73.0527l-80.6064 -35.9766v-42.1104c0 -13.2549 -10.7451 -24 -24 -24h-272c-13.2549 0 -24 10.7451 -24 24v400c0 13.2549 10.7451 24 24 24h272c13.2549 0 24 -10.7451 24 -24
v-40h48zM384 143.14v128.86c0 8.82227 -7.17773 16 -16 16h-48v-183.805l54.5215 24.334c5.58789 2.49902 9.47363 8.09863 9.47852 14.6104zM208 64c8.83594 0 16 7.16406 16 16v224c0 8.83594 -7.16406 16 -16 16s-16 -7.16406 -16 -16v-224
c0 -8.83594 7.16406 -16 16 -16zM112 64c8.83594 0 16 7.16406 16 16v224c0 8.83594 -7.16406 16 -16 16s-16 -7.16406 -16 -16v-224c0 -8.83594 7.16406 -16 16 -16z" />
    <glyph glyph-name="h-square" unicode="&#xf0fd;" horiz-adv-x="448" 
d="M448 368v-352c0 -26.5098 -21.4902 -48 -48 -48h-352c-26.5098 0 -48 21.4902 -48 48v352c0 26.5098 21.4902 48 48 48h352c26.5098 0 48 -21.4902 48 -48zM336 320h-32c-8.83691 0 -16 -7.16309 -16 -16v-80h-128v80c0 8.83691 -7.16309 16 -16 16h-32
c-8.83691 0 -16 -7.16309 -16 -16v-224c0 -8.83691 7.16309 -16 16 -16h32c8.83691 0 16 7.16309 16 16v80h128v-80c0 -8.83691 7.16309 -16 16 -16h32c8.83691 0 16 7.16309 16 16v224c0 8.83691 -7.16309 16 -16 16z" />
    <glyph glyph-name="plus-square" unicode="&#xf0fe;" horiz-adv-x="448" 
d="M400 416c26.5 0 48 -21.5 48 -48v-352c0 -26.5 -21.5 -48 -48 -48h-352c-26.5 0 -48 21.5 -48 48v352c0 26.5 21.5 48 48 48h352zM368 164v56c0 6.59961 -5.40039 12 -12 12h-92v92c0 6.59961 -5.40039 12 -12 12h-56c-6.59961 0 -12 -5.40039 -12 -12v-92h-92
c-6.59961 0 -12 -5.40039 -12 -12v-56c0 -6.59961 5.40039 -12 12 -12h92v-92c0 -6.59961 5.40039 -12 12 -12h56c6.59961 0 12 5.40039 12 12v92h92c6.59961 0 12 5.40039 12 12z" />
    <glyph glyph-name="angle-double-left" unicode="&#xf100;" horiz-adv-x="448" 
d="M223.7 209l136 136c9.39941 9.40039 24.5996 9.40039 33.8994 0l22.6006 -22.5996c9.39941 -9.40039 9.39941 -24.6006 0 -33.9004l-96.2998 -96.5l96.3994 -96.4004c9.40039 -9.39941 9.40039 -24.5996 0 -33.8994l-22.5996 -22.7002
c-9.40039 -9.40039 -24.6006 -9.40039 -33.9004 0l-136 136c-9.5 9.40039 -9.5 24.5996 -0.0996094 34zM31.7002 175c-9.40039 9.40039 -9.40039 24.5996 0.0996094 34l136 136c9.2998 9.40039 24.5 9.40039 33.9004 0l22.5996 -22.7002
c9.40039 -9.2998 9.40039 -24.5 0 -33.8994l-96.3994 -96.4004l96.2998 -96.5c9.39941 -9.2998 9.39941 -24.5 0 -33.9004l-22.6006 -22.5996c-9.2998 -9.40039 -24.5 -9.40039 -33.8994 0z" />
    <glyph glyph-name="angle-double-right" unicode="&#xf101;" horiz-adv-x="448" 
d="M224.3 175l-136 -136c-9.39941 -9.40039 -24.5996 -9.40039 -33.8994 0l-22.6006 22.5996c-9.39941 9.40039 -9.39941 24.6006 0 33.9004l96.4004 96.4004l-96.4004 96.3994c-9.39941 9.40039 -9.39941 24.6006 0 33.9004l22.5 22.7998
c9.40039 9.40039 24.6006 9.40039 33.9004 0l136 -136c9.5 -9.40039 9.5 -24.5996 0.0996094 -34zM416.3 209c9.40039 -9.40039 9.40039 -24.5996 0 -33.7998l-136 -136c-9.2998 -9.40039 -24.5 -9.40039 -33.8994 0l-22.6006 22.5996
c-9.39941 9.2998 -9.39941 24.5 0 33.9004l96.4004 96.3994l-96.4004 96.4004c-9.39941 9.2998 -9.39941 24.5 0 33.9004l22.6006 22.5996c9.2998 9.40039 24.5 9.40039 33.8994 0z" />
    <glyph glyph-name="angle-double-up" unicode="&#xf102;" horiz-adv-x="320" 
d="M177 192.3l136 -136c9.40039 -9.39941 9.40039 -24.5996 0 -33.8994l-22.5996 -22.6006c-9.40039 -9.39941 -24.6006 -9.39941 -33.9004 0l-96.5 96.2998l-96.4004 -96.3994c-9.39941 -9.40039 -24.5996 -9.40039 -33.8994 0l-22.7002 22.5996
c-9.40039 9.40039 -9.40039 24.6006 0 33.9004l136 136c9.40039 9.5 24.5996 9.5 34 0.0996094zM143 384.3c9.40039 9.40039 24.5996 9.40039 33.7998 0l136 -136c9.40039 -9.2998 9.40039 -24.5 0 -33.8994l-22.5996 -22.6006c-9.2998 -9.39941 -24.5 -9.39941 -33.9004 0
l-96.3994 96.4004l-96.4004 -96.4004c-9.2998 -9.39941 -24.5 -9.39941 -33.9004 0l-22.5996 22.6006c-9.40039 9.2998 -9.40039 24.5 0 33.8994z" />
    <glyph glyph-name="angle-double-down" unicode="&#xf103;" horiz-adv-x="320" 
d="M143 191.7l-136 136c-9.40039 9.39941 -9.40039 24.5996 0 33.8994l22.5996 22.6006c9.40039 9.39941 24.6006 9.39941 33.9004 0l96.4004 -96.4004l96.3994 96.4004c9.40039 9.39941 24.6006 9.39941 33.9004 0l22.7998 -22.5
c9.40039 -9.40039 9.40039 -24.6006 0 -33.9004l-136 -136c-9.40039 -9.5 -24.5996 -9.5 -34 -0.0996094zM177 -0.299805c-9.40039 -9.40039 -24.5996 -9.40039 -34 0.0996094l-136 136c-9.40039 9.2998 -9.40039 24.5 0 33.9004l22.7002 22.5996
c9.2998 9.40039 24.5 9.40039 33.8994 0l96.4004 -96.3994l96.5 96.2998c9.2998 9.39941 24.5 9.39941 33.9004 0l22.5996 -22.6006c9.40039 -9.2998 9.40039 -24.5 0 -33.8994z" />
    <glyph glyph-name="angle-up" unicode="&#xf106;" horiz-adv-x="320" 
d="M177 288.3l136 -136c9.40039 -9.39941 9.40039 -24.5996 0 -33.8994l-22.5996 -22.6006c-9.40039 -9.39941 -24.6006 -9.39941 -33.9004 0l-96.5 96.2998l-96.4004 -96.3994c-9.39941 -9.40039 -24.5996 -9.40039 -33.8994 0l-22.7002 22.5996
c-9.40039 9.40039 -9.40039 24.6006 0 33.9004l136 136c9.40039 9.5 24.5996 9.5 34 0.0996094z" />
    <glyph glyph-name="angle-down" unicode="&#xf107;" horiz-adv-x="320" 
d="M143 95.7002l-136 136c-9.40039 9.39941 -9.40039 24.5996 0 33.8994l22.5996 22.6006c9.40039 9.39941 24.6006 9.39941 33.9004 0l96.4004 -96.4004l96.3994 96.4004c9.40039 9.39941 24.6006 9.39941 33.9004 0l22.5996 -22.6006
c9.40039 -9.39941 9.40039 -24.5996 0 -33.8994l-136 -136c-9.2002 -9.40039 -24.3994 -9.40039 -33.7998 0z" />
    <glyph glyph-name="desktop" unicode="&#xf108;" horiz-adv-x="576" 
d="M528 448c26.5 0 48 -21.5 48 -48v-320c0 -26.5 -21.5 -48 -48 -48h-192l16 -48h72c13.2998 0 24 -10.7002 24 -24s-10.7002 -24 -24 -24h-272c-13.2998 0 -24 10.7002 -24 24s10.7002 24 24 24h72l16 48h-192c-26.5 0 -48 21.5 -48 48v320c0 26.5 21.5 48 48 48h480z
M512 96v288h-448v-288h448z" />
    <glyph glyph-name="tablet" unicode="&#xf10a;" horiz-adv-x="448" 
d="M400 448c26.5 0 48 -21.5 48 -48v-416c0 -26.5 -21.5 -48 -48 -48h-352c-26.5 0 -48 21.5 -48 48v416c0 26.5 21.5 48 48 48h352zM224 -32c17.7002 0 32 14.2998 32 32s-14.2998 32 -32 32s-32 -14.2998 -32 -32s14.2998 -32 32 -32z" />
    <glyph glyph-name="mobile" unicode="&#xf10b;" horiz-adv-x="320" 
d="M272 448c26.5 0 48 -21.5 48 -48v-416c0 -26.5 -21.5 -48 -48 -48h-224c-26.5 0 -48 21.5 -48 48v416c0 26.5 21.5 48 48 48h224zM160 -32c17.7002 0 32 14.2998 32 32s-14.2998 32 -32 32s-32 -14.2998 -32 -32s14.2998 -32 32 -32z" />
    <glyph glyph-name="keyboard" unicode="&#xf11c;" horiz-adv-x="576" 
d="M528 0h-480c-26.5098 0 -48 21.4902 -48 48v288c0 26.5098 21.4902 48 48 48h480c26.5098 0 48 -21.4902 48 -48v-288c0 -26.5098 -21.4902 -48 -48 -48zM128 268v40c0 6.62695 -5.37305 12 -12 12h-40c-6.62695 0 -12 -5.37305 -12 -12v-40
c0 -6.62695 5.37305 -12 12 -12h40c6.62695 0 12 5.37305 12 12zM224 268v40c0 6.62695 -5.37305 12 -12 12h-40c-6.62695 0 -12 -5.37305 -12 -12v-40c0 -6.62695 5.37305 -12 12 -12h40c6.62695 0 12 5.37305 12 12zM320 268v40c0 6.62695 -5.37305 12 -12 12h-40
c-6.62695 0 -12 -5.37305 -12 -12v-40c0 -6.62695 5.37305 -12 12 -12h40c6.62695 0 12 5.37305 12 12zM416 268v40c0 6.62695 -5.37305 12 -12 12h-40c-6.62695 0 -12 -5.37305 -12 -12v-40c0 -6.62695 5.37305 -12 12 -12h40c6.62695 0 12 5.37305 12 12zM512 268v40
c0 6.62695 -5.37305 12 -12 12h-40c-6.62695 0 -12 -5.37305 -12 -12v-40c0 -6.62695 5.37305 -12 12 -12h40c6.62695 0 12 5.37305 12 12zM176 172v40c0 6.62695 -5.37305 12 -12 12h-40c-6.62695 0 -12 -5.37305 -12 -12v-40c0 -6.62695 5.37305 -12 12 -12h40
c6.62695 0 12 5.37305 12 12zM272 172v40c0 6.62695 -5.37305 12 -12 12h-40c-6.62695 0 -12 -5.37305 -12 -12v-40c0 -6.62695 5.37305 -12 12 -12h40c6.62695 0 12 5.37305 12 12zM368 172v40c0 6.62695 -5.37305 12 -12 12h-40c-6.62695 0 -12 -5.37305 -12 -12v-40
c0 -6.62695 5.37305 -12 12 -12h40c6.62695 0 12 5.37305 12 12zM464 172v40c0 6.62695 -5.37305 12 -12 12h-40c-6.62695 0 -12 -5.37305 -12 -12v-40c0 -6.62695 5.37305 -12 12 -12h40c6.62695 0 12 5.37305 12 12zM128 76v40c0 6.62695 -5.37305 12 -12 12h-40
c-6.62695 0 -12 -5.37305 -12 -12v-40c0 -6.62695 5.37305 -12 12 -12h40c6.62695 0 12 5.37305 12 12zM416 76v40c0 6.62695 -5.37305 12 -12 12h-232c-6.62695 0 -12 -5.37305 -12 -12v-40c0 -6.62695 5.37305 -12 12 -12h232c6.62695 0 12 5.37305 12 12zM512 76v40
c0 6.62695 -5.37305 12 -12 12h-40c-6.62695 0 -12 -5.37305 -12 -12v-40c0 -6.62695 5.37305 -12 12 -12h40c6.62695 0 12 5.37305 12 12z" />
    <glyph glyph-name="terminal" unicode="&#xf120;" horiz-adv-x="640" 
d="M257.981 175.029l-194.344 -194.344c-9.37305 -9.37207 -24.5684 -9.37207 -33.9404 0l-22.668 22.667c-9.35742 9.35742 -9.375 24.5225 -0.0400391 33.9014l154.021 154.746l-154.021 154.745c-9.33496 9.37891 -9.31738 24.5439 0.0400391 33.9014l22.667 22.667
c9.37305 9.37207 24.5684 9.37207 33.9404 0l194.344 -194.344c9.37207 -9.37207 9.37207 -24.5674 0 -33.9404zM640 -8c0 -13.2549 -10.7451 -24 -24 -24h-304c-13.2549 0 -24 10.7451 -24 24v32c0 13.2549 10.7451 24 24 24h304c13.2549 0 24 -10.7451 24 -24v-32z" />
    <glyph glyph-name="code" unicode="&#xf121;" horiz-adv-x="640" 
d="M278.9 -63.5l-61 17.7002c-6.40039 1.7998 -10 8.5 -8.2002 14.8994l136.5 470.2c1.7998 6.40039 8.5 10 14.8994 8.2002l61 -17.7002c6.40039 -1.7998 10 -8.5 8.2002 -14.8994l-136.5 -470.2c-1.89941 -6.40039 -8.5 -10.1006 -14.8994 -8.2002zM164.9 48.7002
c-4.5 -4.90039 -12.1006 -5.10059 -17 -0.5l-144.101 135.1c-5.09961 4.7002 -5.09961 12.7998 0 17.5l144.101 135c4.89941 4.60059 12.5 4.2998 17 -0.5l43.5 -46.3994c4.69922 -4.90039 4.2998 -12.7002 -0.800781 -17.2002l-90.5996 -79.7002l90.5996 -79.7002
c5.10059 -4.5 5.40039 -12.2998 0.800781 -17.2002zM492.1 48.0996c-4.89941 -4.5 -12.5 -4.2998 -17 0.600586l-43.5 46.3994c-4.69922 4.90039 -4.2998 12.7002 0.800781 17.2002l90.5996 79.7002l-90.5996 79.7998c-5.10059 4.5 -5.40039 12.2998 -0.800781 17.2002
l43.5 46.4004c4.60059 4.7998 12.2002 5 17 0.5l144.101 -135.2c5.09961 -4.7002 5.09961 -12.7998 0 -17.5z" />
    <glyph glyph-name="reply-all" unicode="&#xf122;" horiz-adv-x="576" 
d="M136.309 258.164l176.005 151.985c15.4062 13.3047 39.6865 2.50293 39.6865 -18.1641v-82.7637c129.182 -10.2305 224 -52.2119 224 -183.548c0 -61.4404 -39.582 -122.309 -83.333 -154.132c-13.6533 -9.93066 -33.1113 2.5332 -28.0771 18.6309
c38.5117 123.162 -3.92188 169.482 -112.59 182.016v-84.1758c0 -20.7012 -24.2998 -31.4531 -39.6865 -18.1641l-176.005 151.987c-11.0703 9.56152 -11.0859 26.7529 0 36.3281zM8.30859 221.836c-11.0703 9.56152 -11.0859 26.7529 0 36.3281l176.005 151.985
c15.4062 13.3047 39.6865 2.50293 39.6865 -18.1641v-15.8174l-108.607 -93.7861c-11.8906 -10.2637 -19.3926 -25.4307 -19.3926 -42.3564v-0.0234375c0 -0.0078125 -0.0292969 -0.00292969 -0.0292969 -0.0117188c0 -16.9268 7.53125 -32.1084 19.4229 -42.373
l108.606 -93.7852v-15.8184c0 -20.7002 -24.2998 -31.4531 -39.6865 -18.1641z" />
    <glyph glyph-name="location-arrow" unicode="&#xf124;" 
d="M444.52 444.48c38.3809 16 79.9609 -25.5801 63.9707 -63.9707l-191.9 -415.779c-22.3896 -47.9805 -92.75 -31.9805 -92.75 19.1895v175.91h-175.91c-51.1699 0 -67.1602 70.3604 -19.1895 92.75z" />
    <glyph glyph-name="code-branch" unicode="&#xf126;" horiz-adv-x="384" 
d="M384 304c0 -35.2002 -22.7998 -65.0996 -54.4004 -75.9004c-0.5 -28.0996 -7.59961 -50.5 -21.5996 -67.8994c-28.2002 -35 -76 -39.5 -118.2 -43.4004c-25.7002 -2.39941 -49.8994 -4.59961 -66.0996 -12.7998c-7.10059 -3.59961 -11.7998 -8.2002 -14.9004 -13.4004
c30 -11.5 51.2002 -40.5996 51.2002 -74.5996c0 -44.2002 -35.7998 -80 -80 -80s-80 35.7998 -80 80c0 35.7998 23.5 66.0996 56 76.4004v199.3c-32.5 10.2002 -56 40.5 -56 76.2998c0 44.2002 35.7998 80 80 80s80 -35.7998 80 -80c0 -35.7998 -23.5 -66.0996 -56 -76.2998
v-144c23.9004 11.5 53.0996 14.2998 81.2998 16.8994c35.9004 3.30078 69.7998 6.5 85.2002 25.7002c6.7998 8.40039 10.4004 20.7998 11 36.9004c-33.2002 9.7002 -57.5 40.3994 -57.5 76.7998c0 44.2002 35.7998 80 80 80s80 -35.7998 80 -80zM80 384
c-8.7998 0 -16 -7.2002 -16 -16s7.2002 -16 16 -16s16 7.2002 16 16s-7.2002 16 -16 16zM80 0c8.7998 0 16 7.2002 16 16s-7.2002 16 -16 16s-16 -7.2002 -16 -16s7.2002 -16 16 -16zM304 320c-8.7998 0 -16 -7.2002 -16 -16s7.2002 -16 16 -16s16 7.2002 16 16
s-7.2002 16 -16 16z" />
    <glyph glyph-name="unlink" unicode="&#xf127;" 
d="M304.083 42.0928c4.68555 -4.68555 4.68555 -12.2842 0 -16.9707l-44.6738 -44.6738c-59.2627 -59.2627 -155.693 -59.2666 -214.961 0c-59.2646 59.2646 -59.2646 155.695 0 214.96l44.6748 44.6748c4.68555 4.68555 12.2842 4.68555 16.9707 0l39.5986 -39.5977
c4.68555 -4.68652 4.68555 -12.2842 0 -16.9717l-44.6758 -44.6738c-28.0713 -28.0732 -28.0713 -73.75 0 -101.823c28.0723 -28.0713 73.75 -28.0723 101.824 0l44.6738 44.6748c4.68652 4.68555 12.2842 4.68555 16.9717 0zM247.515 302.309l-39.5967 39.5986
c-4.68555 4.68652 -4.68555 12.2852 0 16.9707l44.6738 44.6738c59.2666 59.2646 155.695 59.2646 214.961 0s59.2656 -155.694 0 -214.96l-44.6748 -44.6748c-4.68652 -4.68555 -12.2852 -4.68555 -16.9707 0l-39.5986 39.5977c-4.68555 4.6875 -4.68555 12.2852 0 16.9717
l44.6758 44.6738c28.0713 28.0732 28.0713 73.75 0 101.823c-28.0742 28.0723 -73.752 28.0742 -101.824 0l-44.6738 -44.6748c-4.6875 -4.68555 -12.2852 -4.68555 -16.9717 0zM482.343 -56.9707c-9.37207 -9.37207 -24.5674 -9.37207 -33.9404 0l-441.373 441.373
c-9.37305 9.37207 -9.37305 24.5674 0 33.9404l22.6279 22.6279c9.37207 9.37305 24.5674 9.37305 33.9404 0l441.372 -441.374c9.37305 -9.37207 9.37305 -24.5674 0 -33.9404z" />
    <glyph glyph-name="question" unicode="&#xf128;" horiz-adv-x="384" 
d="M202.021 448c84.8809 0 175.482 -66.2559 175.481 -153.6c0 -115.982 -125.268 -117.768 -125.268 -160.627v-5.77344c0 -13.2549 -10.7451 -24 -24 -24h-72.4717c-13.2549 0 -24 10.7451 -24 24v9.78809c0 61.8291 46.876 86.5449 82.2998 106.405
c30.376 17.0293 48.9922 28.6113 48.9922 51.1641c0 29.832 -38.0518 49.6309 -68.8154 49.6309c-39.127 0 -57.708 -18.0684 -82.7568 -49.4492c-8.12109 -10.1738 -22.8809 -12.0127 -33.2529 -4.14844l-43.1387 32.709c-10.2705 7.78809 -12.541 22.2939 -5.17773 32.874
c40.5889 58.3232 92.2881 91.0264 172.107 91.0264zM192 74.541c38.1963 0 69.2715 -31.0742 69.2715 -69.2695c0 -38.1963 -31.0752 -69.2715 -69.2715 -69.2715s-69.2715 31.0752 -69.2715 69.2695c0 38.1963 31.0752 69.2715 69.2715 69.2715z" />
    <glyph glyph-name="puzzle-piece" unicode="&#xf12e;" horiz-adv-x="576" 
d="M519.442 159.349c37.5957 0 56.5576 -31.5928 56.5576 -65.792c0 -33.5469 -19.2881 -61.5566 -54.9229 -61.5557c-39.8848 0 -50.3457 36.1523 -86.3086 36.1523c-60.5518 0 -25.8262 -120.102 -25.8262 -120.102c-51.5557 0 -181.23 -35.0732 -181.23 25.7305
c0 35.8271 36.2881 46.25 36.2881 85.9844c0 35.501 -28.1152 54.7178 -61.7881 54.7178c-34.3271 0 -63.5771 -18.8906 -63.5771 -56.3467c0 -41.3633 40 -58.998 40 -81.4707c0 -69.709 -178.635 -28.6621 -178.635 -28.6621v333.237s175.885 -40.9609 175.884 28.6621
c0 22.4727 -31.7109 40.3857 -31.7109 81.75c0 37.4551 31.7119 56.3457 66.3662 56.3457c33.3457 0 61.4609 -19.2158 61.4609 -54.7178c0 -39.7354 -36.2881 -50.1582 -36.2881 -85.9854c0 -83.2969 196.288 -3.29688 196.288 -3.29688
s-54.5908 -176.244 5.38379 -176.244c22.5586 0 40.5391 31.5928 82.0586 31.5928z" />
    <glyph glyph-name="fire-extinguisher" unicode="&#xf134;" horiz-adv-x="448" 
d="M434.027 421.671c7.31445 1.21875 13.9727 -4.4209 13.9727 -11.8369v-115.668c0 -7.41602 -6.6582 -13.0557 -13.9727 -11.8369l-168 28c-11.7305 1.95508 -10.0273 14.6973 -10.0273 17.6709h-40v-27.0303c41.4043 -10.6582 72 -48.2383 72 -92.9697v-248
c0 -13.2549 -10.7451 -24 -24 -24h-144c-13.2549 0 -24 10.7451 -24 24v246.795c0 44.8945 30.457 83.2666 72 94.1289v27.0762c-61.0361 0 -92.9424 7.00977 -121.711 -64.9141c-4.91699 -12.2949 -18.8789 -18.2959 -31.1963 -13.3701
c-12.3066 4.92285 -18.293 18.8906 -13.3701 31.1973c14.668 36.6709 38.0107 77.833 90.0498 90.8838c-14.1406 36.5273 12.793 76.2031 52.2275 76.2031c37.4463 0 64.3525 -36.1084 53.668 -72h58.332c0 4.2002 -1.30664 15.7822 10.0273 17.6709zM144 376
c8.82227 0 16 7.17773 16 16s-7.17773 16 -16 16s-16 -7.17773 -16 -16s7.17773 -16 16 -16z" />
    <glyph glyph-name="chevron-circle-left" unicode="&#xf137;" 
d="M256 -56c-137 0 -248 111 -248 248s111 248 248 248s248 -111 248 -248s-111 -248 -248 -248zM142.1 175l135.5 -135.5c9.40039 -9.40039 24.6006 -9.40039 33.9004 0l17 17c9.40039 9.40039 9.40039 24.5996 0 33.9004l-101.6 101.6l101.6 101.6
c9.40039 9.40039 9.40039 24.6006 0 33.9004l-17 17c-9.40039 9.40039 -24.5996 9.40039 -33.9004 0l-135.5 -135.5c-9.39941 -9.40039 -9.39941 -24.5996 0 -34z" />
    <glyph glyph-name="chevron-circle-right" unicode="&#xf138;" 
d="M256 440c137 0 248 -111 248 -248s-111 -248 -248 -248s-248 111 -248 248s111 248 248 248zM369.9 209l-135.5 135.5c-9.40039 9.40039 -24.6006 9.40039 -33.9004 0l-17 -17c-9.40039 -9.40039 -9.40039 -24.5996 0 -33.9004l101.6 -101.6l-101.6 -101.6
c-9.40039 -9.40039 -9.40039 -24.6006 0 -33.9004l17 -17c9.40039 -9.40039 24.5996 -9.40039 33.9004 0l135.5 135.5c9.39941 9.40039 9.39941 24.5996 0 34z" />
    <glyph glyph-name="chevron-circle-up" unicode="&#xf139;" 
d="M8 192c0 137 111 248 248 248s248 -111 248 -248s-111 -248 -248 -248s-248 111 -248 248zM239 305.9l-135.5 -135.5c-9.40039 -9.40039 -9.40039 -24.6006 0 -33.9004l17 -17c9.40039 -9.40039 24.5996 -9.40039 33.9004 0l101.6 101.6l101.6 -101.6
c9.40039 -9.40039 24.6006 -9.40039 33.9004 0l17 17c9.40039 9.40039 9.40039 24.5996 0 33.9004l-135.5 135.5c-9.40039 9.39941 -24.5996 9.39941 -34 0z" />
    <glyph glyph-name="chevron-circle-down" unicode="&#xf13a;" 
d="M504 192c0 -137 -111 -248 -248 -248s-248 111 -248 248s111 248 248 248s248 -111 248 -248zM273 78.0996l135.5 135.5c9.40039 9.40039 9.40039 24.6006 0 33.9004l-17 17c-9.40039 9.40039 -24.5996 9.40039 -33.9004 0l-101.6 -101.6l-101.6 101.6
c-9.40039 9.40039 -24.6006 9.40039 -33.9004 0l-17 -17c-9.40039 -9.40039 -9.40039 -24.5996 0 -33.9004l135.5 -135.5c9.40039 -9.39941 24.5996 -9.39941 34 0z" />
    <glyph glyph-name="unlock-alt" unicode="&#xf13e;" horiz-adv-x="448" 
d="M400 192c26.5 0 48 -21.5 48 -48v-160c0 -26.5 -21.5 -48 -48 -48h-352c-26.5 0 -48 21.5 -48 48v160c0 26.5 21.5 48 48 48h24v102.5c0 84 67.5 153.2 151.5 153.5s152.5 -68 152.5 -152v-16c0 -13.2998 -10.7002 -24 -24 -24h-32c-13.2998 0 -24 10.7002 -24 24v16
c0 39.9004 -32.7002 72.4004 -72.7002 72c-39.5996 -0.400391 -71.2998 -33.2998 -71.2998 -72.9004v-103.1h248zM264 40v48c0 22.0996 -17.9004 40 -40 40s-40 -17.9004 -40 -40v-48c0 -22.0996 17.9004 -40 40 -40s40 17.9004 40 40z" />
    <glyph glyph-name="ellipsis-h" unicode="&#xf141;" 
d="M328 192c0 -39.7998 -32.2002 -72 -72 -72s-72 32.2002 -72 72s32.2002 72 72 72s72 -32.2002 72 -72zM432 264c39.7998 0 72 -32.2002 72 -72s-32.2002 -72 -72 -72s-72 32.2002 -72 72s32.2002 72 72 72zM80 264c39.7998 0 72 -32.2002 72 -72s-32.2002 -72 -72 -72
s-72 32.2002 -72 72s32.2002 72 72 72z" />
    <glyph glyph-name="ellipsis-v" unicode="&#xf142;" horiz-adv-x="192" 
d="M96 264c39.7998 0 72 -32.2002 72 -72s-32.2002 -72 -72 -72s-72 32.2002 -72 72s32.2002 72 72 72zM24 368c0 39.7998 32.2002 72 72 72s72 -32.2002 72 -72s-32.2002 -72 -72 -72s-72 32.2002 -72 72zM24 16c0 39.7998 32.2002 72 72 72s72 -32.2002 72 -72
s-32.2002 -72 -72 -72s-72 32.2002 -72 72z" />
    <glyph glyph-name="rss-square" unicode="&#xf143;" horiz-adv-x="448" 
d="M400 416c26.5098 0 48 -21.4902 48 -48v-352c0 -26.5098 -21.4902 -48 -48 -48h-352c-26.5098 0 -48 21.4902 -48 48v352c0 26.5098 21.4902 48 48 48h352zM112 32c26.5098 0 48 21.4902 48 48s-21.4902 48 -48 48s-48 -21.4902 -48 -48s21.4902 -48 48 -48zM269.533 32
c6.53516 0 11.7764 5.46777 11.4248 11.9941c-5.9668 110.428 -94.418 198.99 -204.964 204.964c-6.52637 0.351562 -11.9941 -4.88965 -11.9941 -11.4248v-34.335c0 -6.00977 4.63574 -11.0508 10.6328 -11.4414c79.8799 -5.20312 143.909 -69.0732 149.123 -149.123
c0.391602 -5.99805 5.43066 -10.6338 11.4424 -10.6338h34.335zM372.56 32c6.4541 0 11.6641 5.33789 11.4326 11.7871c-5.99512 167.014 -140.375 302.18 -308.205 308.205c-6.44922 0.231445 -11.7871 -4.97852 -11.7871 -11.4326v-34.334
c0 -6.16016 4.88184 -11.1748 11.0391 -11.4277c136.556 -5.59863 246.162 -115.225 251.76 -251.76c0.251953 -6.15625 5.2666 -11.0381 11.4268 -11.0381h34.334z" />
    <glyph glyph-name="minus-square" unicode="&#xf146;" horiz-adv-x="448" 
d="M400 416c26.5 0 48 -21.5 48 -48v-352c0 -26.5 -21.5 -48 -48 -48h-352c-26.5 0 -48 21.5 -48 48v352c0 26.5 21.5 48 48 48h352zM92 152h264c6.59961 0 12 5.40039 12 12v56c0 6.59961 -5.40039 12 -12 12h-264c-6.59961 0 -12 -5.40039 -12 -12v-56
c0 -6.59961 5.40039 -12 12 -12z" />
    <glyph glyph-name="check-square" unicode="&#xf14a;" horiz-adv-x="448" 
d="M400 -32h-352c-26.5098 0 -48 21.4902 -48 48v352c0 26.5098 21.4902 48 48 48h352c26.5098 0 48 -21.4902 48 -48v-352c0 -26.5098 -21.4902 -48 -48 -48zM195.314 66.0586l184 184c6.24707 6.24805 6.24707 16.3799 0 22.627l-22.6279 22.6279
c-6.24707 6.24707 -16.3789 6.24805 -22.6279 0l-150.059 -150.059l-70.0586 70.0596c-6.24805 6.24707 -16.3799 6.24707 -22.6279 0l-22.6279 -22.6279c-6.24707 -6.24707 -6.24707 -16.3789 0 -22.627l104 -104c6.24902 -6.25 16.3799 -6.25 22.6289 -0.000976562z" />
    <glyph glyph-name="pen-square" unicode="&#xf14b;" horiz-adv-x="448" 
d="M400 -32h-352c-26.5 0 -48 21.5 -48 48v352c0 26.5 21.5 48 48 48h352c26.5 0 48 -21.5 48 -48v-352c0 -26.5 -21.5 -48 -48 -48zM238.1 270.1l-135.699 -135.699l-6.30078 -57.1006c-0.799805 -7.59961 5.60059 -14.0996 13.3008 -13.2998l57.0996 6.2998l135.7 135.7
c2.2998 2.2998 2.2998 6.09961 0 8.5l-55.5 55.5c-2.5 2.40039 -6.2998 2.40039 -8.60059 0.0996094zM345 282.9l-30.0996 30.0996c-9.40039 9.40039 -24.6006 9.40039 -33.9004 0l-23.0996 -23.0996c-2.30078 -2.30078 -2.30078 -6.10059 0 -8.5l55.5 -55.5
c2.2998 -2.30078 6.09961 -2.30078 8.5 0l23.0996 23.0996c9.2998 9.2998 9.2998 24.5 0 33.9004z" />
    <glyph glyph-name="external-link-square" unicode="&#xf14c;" horiz-adv-x="448" 
d="M448 368v-352c0 -26.5098 -21.4902 -48 -48 -48h-352c-26.5098 0 -48 21.4902 -48 48v352c0 26.5098 21.4902 48 48 48h352c26.5098 0 48 -21.4902 48 -48zM384 320.889c0 17.1826 -13.9287 31.1113 -31.1113 31.1113h-132.222
c-12.8867 0 -23.333 -10.4473 -23.333 -23.334v-14.9043c0 -13.1377 10.8428 -23.6855 23.9756 -23.3232l56.002 1.58789l-207.403 -205.935c-7.8584 -7.80176 -7.87988 -20.5039 -0.0498047 -28.334l19.8984 -19.8984c7.83008 -7.83008 20.5322 -7.80859 28.334 0.0498047
l205.936 207.404l-1.58789 -56.0039c-0.362305 -13.1328 10.1855 -23.9756 23.3232 -23.9756h14.9043c12.8867 0 23.334 10.4473 23.334 23.333v132.222z" />
    <glyph glyph-name="share-square" unicode="&#xf14d;" horiz-adv-x="576" 
d="M568.482 270.552l-144.004 -135.984c-15.1787 -14.335 -40.4785 -3.70703 -40.4785 17.4473v71.9629c-144.575 -0.969727 -205.566 -35.1123 -164.775 -171.353c4.4834 -14.9727 -12.8457 -26.5674 -25.0059 -17.3301
c-38.9668 29.5996 -74.2188 86.2168 -74.2188 143.366c0 143.937 117.599 172.5 264 173.312v72.0156c0 21.1738 25.3174 31.7676 40.4785 17.4473l144.004 -135.987c10.0195 -9.46289 10.0273 -25.4248 0 -34.8965zM384 68.8721c0 7.34473 6.53027 12.9053 13.7998 11.8594
c3.36816 -0.485352 6.75977 -0.711914 10.2607 -0.711914c8.3877 0 16.4424 1.44043 23.9287 4.08887c7.81348 2.76367 16.0107 -3.01465 16.0107 -11.3027v-88.8057c0 -26.5098 -21.4902 -48 -48 -48h-352c-26.5098 0 -48 21.4902 -48 48v352c0 26.5098 21.4902 48 48 48
h121.033c12.5508 0 16.6748 -16.8301 5.54492 -22.6309c-18.7773 -9.78613 -36.0615 -22.1084 -51.0137 -37.6758c-2.18164 -2.27637 -5.25098 -3.69141 -8.64844 -3.69336h-50.916v-320h320v68.8721z" />
    <glyph glyph-name="caret-square-down" unicode="&#xf150;" horiz-adv-x="448" 
d="M448 368v-352c0 -26.5 -21.5 -48 -48 -48h-352c-26.5 0 -48 21.5 -48 48v352c0 26.5 21.5 48 48 48h352c26.5 0 48 -21.5 48 -48zM92.5 227.5l123 -123c4.7002 -4.7002 12.2998 -4.7002 17 0l123 123c7.59961 7.59961 2.2002 20.5 -8.5 20.5h-246
c-10.7002 0 -16.0996 -12.9004 -8.5 -20.5z" />
    <glyph glyph-name="caret-square-up" unicode="&#xf151;" horiz-adv-x="448" 
d="M0 16v352c0 26.5098 21.4902 48 48 48h352c26.5098 0 48 -21.4902 48 -48v-352c0 -26.5098 -21.4902 -48 -48 -48h-352c-26.5098 0 -48 21.4902 -48 48zM355.515 156.485l-123.029 123.029c-4.68652 4.68652 -12.2842 4.68652 -16.9717 0l-123.028 -123.029
c-7.56055 -7.56055 -2.20605 -20.4854 8.48438 -20.4854h246.06c10.6904 0 16.0449 12.9258 8.48535 20.4854z" />
    <glyph glyph-name="caret-square-right" unicode="&#xf152;" horiz-adv-x="448" 
d="M48 416h352c26.5098 0 48 -21.4902 48 -48v-352c0 -26.5098 -21.4902 -48 -48 -48h-352c-26.5098 0 -48 21.4902 -48 48v352c0 26.5098 21.4902 48 48 48zM188.485 60.4854l123.028 123.028c4.68652 4.68652 4.68652 12.2842 0 16.9717l-123.028 123.029
c-7.56055 7.56055 -20.4854 2.20605 -20.4854 -8.48438v-246.06c0 -10.6904 12.9258 -16.0449 20.4854 -8.48535z" />
    <glyph glyph-name="euro-sign" unicode="&#xf153;" horiz-adv-x="320" 
d="M310.706 34.2354l8.81836 -44.4902c1.23828 -6.24902 -2.62109 -12.3623 -8.78809 -13.957c-12.5391 -3.24414 -34.8008 -7.78809 -61.1016 -7.78809c-104.371 0 -182.496 65.3076 -207.521 155.64h-30.1143c-6.62695 0 -12 5.37305 -12 12v28.3604
c0 6.62695 5.37305 12 12 12h21.3877c-1 12.958 -0.828125 28.6377 0.181641 42.2451h-21.5693c-6.62695 0 -12 5.37305 -12 12v29.7549c0 6.62695 5.37305 12 12 12h33.0752c28.9551 83.748 107.376 144 204.56 144c21.0752 0 40.582 -2.91211 52.6865 -5.20703
c6.86035 -1.30078 11.1475 -8.17578 9.32617 -14.917l-11.9912 -44.3682c-1.65527 -6.125 -7.78613 -9.89062 -14.002 -8.62305c-9.28711 1.89551 -23.3652 4.14551 -37.8516 4.14551c-54.9287 0 -96.9854 -30.0391 -117.619 -75.0303h138.278
c7.66211 0 13.3613 -7.08203 11.7227 -14.5664l-6.51172 -29.7549c-1.17969 -5.3877 -5.9834 -9.43359 -11.7227 -9.43359h-146.593c-1.55176 -13.958 -1.34766 -27.917 -0.137695 -42.2451h134.237c7.68945 0 13.3936 -7.12891 11.708 -14.6309l-6.37305 -28.3604
c-1.20312 -5.35547 -5.99121 -9.36914 -11.708 -9.36914h-113.689c19.5322 -50.6582 64.6982 -85.4482 121.462 -85.4482c18.0039 0 34.7334 2.97363 45.4258 5.41211c6.58887 1.50391 13.1094 -2.73828 14.4238 -9.36816z" />
    <glyph glyph-name="pound-sign" unicode="&#xf154;" horiz-adv-x="320" 
d="M308 96c6.62695 0 12 -5.37305 12 -12v-104c0 -6.62695 -5.37305 -12 -12 -12h-296c-6.62695 0 -12 5.37305 -12 12v40c0 6.62695 5.37305 12 12 12h36v128h-28c-6.62695 0 -12 5.37305 -12 12v40c0 6.62695 5.37305 12 12 12h28v66.0391
c0 73.2188 58.0264 125.961 139.931 125.961c48.6455 0 85.1934 -22.5596 101.575 -34.9277c5.39844 -4.07617 6.35254 -11.8057 2.11914 -17.0811l-28.4932 -35.5137c-3.7998 -4.73535 -10.5371 -5.89746 -15.6875 -2.68457
c-11.7744 7.34375 -33.9941 18.8486 -57.6523 18.8486c-37.2305 0 -61.792 -24.8193 -61.792 -57.0859v-63.5557h84c6.62695 0 12 -5.37305 12 -12v-40c0 -6.62695 -5.37305 -12 -12 -12h-84v-126.848h122.505v50.8477c0 6.62695 5.37305 12 12 12h45.4951z" />
    <glyph glyph-name="rupee-sign" unicode="&#xf156;" horiz-adv-x="320" 
d="M308 352h-72.9424c5.97266 -9.75391 10.7666 -20.459 14.252 -32h58.6904c6.62695 0 12 -5.37305 12 -12v-40c0 -6.62695 -5.37305 -12 -12 -12h-52.8105c-7.1748 -74.5107 -61.8193 -125.566 -138.318 -127.906l150.882 -139.275
c8.02734 -7.41016 2.78516 -20.8184 -8.13867 -20.8184h-82.5625c-3.1377 0 -6 1.20801 -8.13867 3.18164l-165.052 152.356c-2.46094 2.27148 -3.86133 5.46875 -3.86133 8.81836v53.0117c0 6.62695 5.37305 12 12 12h84c41.7959 0 68.54 22.5459 74.7568 58.6318h-158.757
c-6.62695 0 -12 5.37305 -12 12v40c0 6.62695 5.37305 12 12 12h146.25c-12.709 17.2939 -33.6621 27.252 -60.9697 27.252h-85.2803c-6.62695 0 -12 5.37305 -12 12v44.748c0 6.62695 5.37305 12 12 12h296c6.62695 0 12 -5.37305 12 -12v-40
c0 -6.62695 -5.37305 -12 -12 -12z" />
    <glyph glyph-name="yen-sign" unicode="&#xf157;" horiz-adv-x="384" 
d="M351.2 416c9.09961 0 14.8994 -9.7002 10.5996 -17.5996l-80.0996 -150.4h58.2998c6.59961 0 12 -5.40039 12 -12v-32c0 -6.59961 -5.40039 -12 -12 -12h-88.2002l-19.7998 -37.2002v-26.7998h108c6.59961 0 12 -5.40039 12 -12v-32c0 -6.59961 -5.40039 -12 -12 -12
h-108v-92c0 -6.59961 -5.40039 -12 -12 -12h-56c-6.59961 0 -12 5.40039 -12 12v92h-108c-6.59961 0 -12 5.40039 -12 12v32c0 6.59961 5.40039 12 12 12h108v26.7998l-19.7998 37.2002h-88.2002c-6.59961 0 -12 5.40039 -12 12v32c0 6.59961 5.40039 12 12 12h58.2998
l-80.0996 150.4c-4.2002 7.89941 1.5 17.5996 10.5996 17.5996h65.2002c4.59961 0 8.7998 -2.59961 10.7998 -6.7002l55.4004 -113.2c14.5 -34.6992 27.0996 -71.8994 27.0996 -71.8994h1.2998s12.6006 37.2002 27.1006 71.8994l55.3994 113.2
c2 4.10059 6.2002 6.7002 10.8008 6.7002h65.2998z" />
    <glyph glyph-name="ruble-sign" unicode="&#xf158;" horiz-adv-x="384" 
d="M239.36 128h-92.8008v-32h161.44c6.62695 0 12 -5.37305 12 -12v-40c0 -6.62695 -5.37305 -12 -12 -12h-161.44v-52c0 -6.62695 -5.37305 -12 -12 -12h-58.5596c-6.62695 0 -12 5.37305 -12 12v52h-52c-6.62695 0 -12 5.37305 -12 12v40c0 6.62695 5.37305 12 12 12h52
v32h-52c-6.62695 0 -12 5.37305 -12 12v45.3682c0 6.62695 5.37305 12 12 12h52v206.632c0 6.62695 5.37305 12 12 12h163.36c85.1201 0 144.64 -57.5996 144.64 -143.071c0 -85.4707 -59.5195 -144.929 -144.64 -144.929zM146.56 347.252v-149.884h77.4404
c48 0 76.1602 29.7285 76.1602 75.5605c0 45.2129 -28.1602 74.3232 -74.8799 74.3232h-78.7207z" />
    <glyph glyph-name="won-sign" unicode="&#xf159;" horiz-adv-x="576" 
d="M564 256h-62.7002l-7.39941 -32h70.0996c6.59961 0 12 -5.40039 12 -12v-40c0 -6.59961 -5.40039 -12 -12 -12h-84.9004l-42.0996 -182.7c-1.2998 -5.39941 -6.09961 -9.2998 -11.7002 -9.2998h-56.7998c-5.59961 0 -10.4004 3.90039 -11.7002 9.2998l-42.3994 182.7
h-55.1006l-42.2998 -182.7c-1.2998 -5.39941 -6.09961 -9.2998 -11.7002 -9.2998h-56.7998c-5.59961 0 -10.5 3.90039 -11.7002 9.40039l-40.8994 182.6h-83.9004c-6.59961 0 -12 5.40039 -12 12v40c0 6.59961 5.40039 12 12 12h69.5l-7.2002 32h-62.2998
c-6.59961 0 -12 5.40039 -12 12v40c0 6.59961 5.40039 12 12 12h48l-18.0996 80.7002c-1.7002 7.5 4 14.5996 11.6992 14.5996h42.1006c5.7002 0 10.7002 -4 11.7998 -9.59961l17.5 -85.7002h108.7l20 86c1.2998 5.5 6.09961 9.2998 11.7002 9.2998h44
c5.59961 0 10.3994 -3.7998 11.6992 -9.2998l19.7002 -86h109.9l14.3994 85.7998c1.10059 5.5 6 9.5 11.7002 9.5h46.1006c7.69922 0 13.3994 -7.2002 11.6992 -14.7002l-18.5996 -80.5996h48c6.59961 0 12 -5.40039 12 -12v-40c0 -6.59961 -5.40039 -12 -12 -12zM183.8 106
l12.6006 54h-38.8008l11 -54c5.10059 -25.2002 6.80078 -47.2002 6.80078 -47.2002h1.09961c0.5 0 1.09961 21.4004 7.2998 47.2002zM211.3 224l7.5 32h-80.7998l6.5 -32h66.7998zM274.2 224h25.3994l-2 8.59961c-1.89941 8 -3.5 16 -4.7998 23.4004h-11.7998
c-1.2998 -7.40039 -2.90039 -15.4004 -4.7998 -23.4004zM405.1 106l11.5 54h-39.0996l12.4004 -54c6.19922 -25.7998 6.69922 -47.2002 7.2998 -47.2002h1.09961s1.7002 22 6.7998 47.2002zM430.3 224l6.90039 32h-81.6006l7.30078 -32h67.3994z" />
    <glyph glyph-name="long-arrow-down" unicode="&#xf175;" horiz-adv-x="320" 
d="M261.573 161.456c9.37305 9.37305 24.5684 9.37305 33.9414 0l16.9717 -16.9707c9.37305 -9.37207 9.37305 -24.5684 0 -33.9414l-135.516 -135.514c-9.37305 -9.37305 -24.5674 -9.37305 -33.9404 0l-135.516 135.514c-9.37305 9.37207 -9.37305 24.5684 0 33.9414
l16.9717 16.9707c9.37207 9.37305 24.5674 9.37305 33.9404 0l65.5732 -65.5742v296.118c0 13.2549 10.7451 24 24 24h24c13.2549 0 24 -10.7451 24 -24v-296.118z" />
    <glyph glyph-name="long-arrow-up" unicode="&#xf176;" horiz-adv-x="320" 
d="M58.4268 222.544c-9.37305 -9.37305 -24.5684 -9.37305 -33.9404 0l-16.9717 16.9707c-9.37305 9.37207 -9.37305 24.5684 0 33.9414l135.516 135.515c9.37305 9.37305 24.5674 9.37305 33.9404 0l135.515 -135.515c9.37305 -9.37207 9.37305 -24.5684 0 -33.9414
l-16.9717 -16.9707c-9.37207 -9.37305 -24.5674 -9.37305 -33.9404 0l-65.5732 65.5742v-296.118c0 -13.2549 -10.7451 -24 -24 -24h-24c-13.2549 0 -24 10.7451 -24 24v296.118z" />
    <glyph glyph-name="long-arrow-left" unicode="&#xf177;" horiz-adv-x="448" 
d="M193.456 90.4268c9.37305 -9.37305 9.37305 -24.5684 0 -33.9404l-16.9707 -16.9717c-9.37207 -9.37305 -24.5684 -9.37305 -33.9414 0l-135.515 135.516c-9.37305 9.37305 -9.37305 24.5674 0 33.9404l135.515 135.515c9.37207 9.37305 24.5684 9.37305 33.9414 0
l16.9707 -16.9717c9.37305 -9.37207 9.37305 -24.5674 0 -33.9404l-65.5742 -65.5732h296.118c13.2549 0 24 -10.7451 24 -24v-24c0 -13.2549 -10.7451 -24 -24 -24h-296.118z" />
    <glyph glyph-name="long-arrow-right" unicode="&#xf178;" horiz-adv-x="448" 
d="M254.544 293.573c-9.37305 9.37305 -9.37305 24.5684 0 33.9404l16.9707 16.9717c9.37207 9.37305 24.5684 9.37305 33.9414 0l135.514 -135.515c9.37305 -9.37207 9.37305 -24.5674 0 -33.9404l-135.514 -135.516c-9.37207 -9.37305 -24.5684 -9.37305 -33.9414 0
l-16.9707 16.9717c-9.37305 9.37207 -9.37305 24.5674 0 33.9404l65.5742 65.5732h-296.118c-13.2549 0 -24 10.7451 -24 24v24c0 13.2549 10.7451 24 24 24h296.118z" />
    <glyph glyph-name="female" unicode="&#xf182;" horiz-adv-x="256" 
d="M128 448c35.3457 0 64 -28.6543 64 -64s-28.6543 -64 -64 -64s-64 28.6543 -64 64s28.6543 64 64 64zM247.283 93.8213c3.78809 -15.1504 -7.69238 -29.8213 -23.2832 -29.8213h-56v-104c0 -13.2549 -10.7451 -24 -24 -24h-32c-13.2549 0 -24 10.7451 -24 24v104h-56
c-15.6172 0 -27.0654 14.6953 -23.2832 29.8213l48 192c2.6084 10.4316 12.0488 18.1787 23.2832 18.1787h11.3604c23.6895 -10.8936 50.5684 -10.4434 73.2793 0h11.3604c11.2344 0 20.6748 -7.74707 23.2832 -18.1787z" />
    <glyph glyph-name="male" unicode="&#xf183;" horiz-adv-x="192" 
d="M96 448c35.3457 0 64 -28.6543 64 -64s-28.6543 -64 -64 -64s-64 28.6543 -64 64s28.6543 64 64 64zM144 304c26.5098 0 48 -21.4902 48 -48v-136c0 -13.2549 -10.7451 -24 -24 -24h-16v-136c0 -13.2549 -10.7451 -24 -24 -24h-64c-13.2549 0 -24 10.7451 -24 24v136h-16
c-13.2549 0 -24 10.7451 -24 24v136c0 26.5098 21.4902 48 48 48h11.3604c23.6895 -10.8936 50.5684 -10.4434 73.2793 0h11.3604z" />
    <glyph glyph-name="caret-square-left" unicode="&#xf191;" horiz-adv-x="448" 
d="M400 -32h-352c-26.5098 0 -48 21.4902 -48 48v352c0 26.5098 21.4902 48 48 48h352c26.5098 0 48 -21.4902 48 -48v-352c0 -26.5098 -21.4902 -48 -48 -48zM259.515 323.515l-123.029 -123.029c-4.68652 -4.68652 -4.68652 -12.2842 0 -16.9717l123.028 -123.028
c7.56055 -7.56055 20.4854 -2.20605 20.4854 8.48438v246.06c0.000976562 10.6904 -12.9248 16.0449 -20.4844 8.48535z" />
    <glyph glyph-name="dot-circle" unicode="&#xf192;" 
d="M256 440c136.967 0 248 -111.033 248 -248s-111.033 -248 -248 -248s-248 111.033 -248 248s111.033 248 248 248zM336 192c0 44.1123 -35.8877 80 -80 80s-80 -35.8877 -80 -80s35.8877 -80 80 -80s80 35.8877 80 80z" />
    </font>
</defs>
</svg>
