<?xml version="1.0" standalone="no"?>
<!DOCTYPE svg PUBLIC "-//W3C//DTD SVG 1.1//EN" "http://www.w3.org/Graphics/SVG/1.1/DTD/svg11.dtd" >
<svg xmlns="http://www.w3.org/2000/svg" xmlns:xlink="http://www.w3.org/1999/xlink" version="1.1">
<metadata>
Created by FontForge 20201107 at Wed Aug  4 12:37:10 2021
 By Robert Madole
Copyright (c) Font Awesome
</metadata>
<!-- Font Awesome Pro 5.15.4 by @fontawesome - https://fontawesome.com License - https://fontawesome.com/license (Commercial License) --><defs>
<font id="FontAwesome5Pro-Light" horiz-adv-x="448" >
  <font-face 
    font-family="Font Awesome 5 Pro Light"
    font-weight="300"
    font-stretch="normal"
    units-per-em="512"
    panose-1="2 0 3 3 0 0 0 0 0 0"
    ascent="448"
    descent="-64"
    bbox="-1.00472 -64.0527 640.162 449"
    underline-thickness="25"
    underline-position="-50"
    unicode-range="U+0020-F8FF"
  />
    <missing-glyph />
    <glyph glyph-name="align-left" unicode="&#xf036;" 
d="M280 400c4.41504 0 8 -3.58496 8 -8v-16c0 -4.41504 -3.58496 -8 -8 -8h-272c-4.41504 0 -8 3.58496 -8 8v16c0 4.41504 3.58496 8 8 8h272zM440 16c4.41504 0 8 -3.58496 8 -8v-16c0 -4.41504 -3.58496 -8 -8 -8h-432c-4.41504 0 -8 3.58496 -8 8v16
c0 4.41504 3.58496 8 8 8h432zM280 144c4.41504 0 8 -3.58496 8 -8v-16c0 -4.41504 -3.58496 -8 -8 -8h-272c-4.41504 0 -8 3.58496 -8 8v16c0 4.41504 3.58496 8 8 8h272zM440 272c4.41504 0 8 -3.58496 8 -8v-16c0 -4.41504 -3.58496 -8 -8 -8h-432
c-4.41504 0 -8 3.58496 -8 8v16c0 4.41504 3.58496 8 8 8h432z" />
    <glyph glyph-name="align-center" unicode="&#xf037;" 
d="M344 400c4.41504 0 8 -3.58496 8 -8v-16c0 -4.41504 -3.58496 -8 -8 -8h-240c-4.41504 0 -8 3.58496 -8 8v16c0 4.41504 3.58496 8 8 8h240zM440 16c4.41504 0 8 -3.58496 8 -8v-16c0 -4.41504 -3.58496 -8 -8 -8h-432c-4.41504 0 -8 3.58496 -8 8v16
c0 4.41504 3.58496 8 8 8h432zM344 144c4.41504 0 8 -3.58496 8 -8v-16c0 -4.41504 -3.58496 -8 -8 -8h-240c-4.41504 0 -8 3.58496 -8 8v16c0 4.41504 3.58496 8 8 8h240zM440 272c4.41504 0 8 -3.58496 8 -8v-16c0 -4.41504 -3.58496 -8 -8 -8h-432
c-4.41504 0 -8 3.58496 -8 8v16c0 4.41504 3.58496 8 8 8h432z" />
    <glyph glyph-name="align-right" unicode="&#xf038;" 
d="M440 400c4.41504 0 8 -3.58496 8 -8v-16c0 -4.41504 -3.58496 -8 -8 -8h-272c-4.41504 0 -8 3.58496 -8 8v16c0 4.41504 3.58496 8 8 8h272zM440 16c4.41504 0 8 -3.58496 8 -8v-16c0 -4.41504 -3.58496 -8 -8 -8h-432c-4.41504 0 -8 3.58496 -8 8v16
c0 4.41504 3.58496 8 8 8h432zM440 144c4.41504 0 8 -3.58496 8 -8v-16c0 -4.41504 -3.58496 -8 -8 -8h-272c-4.41504 0 -8 3.58496 -8 8v16c0 4.41504 3.58496 8 8 8h272zM440 272c4.41504 0 8 -3.58496 8 -8v-16c0 -4.41504 -3.58496 -8 -8 -8h-432
c-4.41504 0 -8 3.58496 -8 8v16c0 4.41504 3.58496 8 8 8h432z" />
    <glyph glyph-name="align-justify" unicode="&#xf039;" 
d="M439 400c4.41504 0 8 -3.58496 8 -8v-16c0 -4.41504 -3.58496 -8 -8 -8h-432c-4.41504 0 -8 3.58496 -8 8v16c0 4.41504 3.58496 8 8 8h432zM439 16c4.41504 0 8 -3.58496 8 -8v-16c0 -4.41504 -3.58496 -8 -8 -8h-432c-4.41504 0 -8 3.58496 -8 8v16
c0 4.41504 3.58496 8 8 8h432zM439 144c4.41504 0 8 -3.58496 8 -8v-16c0 -4.41504 -3.58496 -8 -8 -8h-432c-4.41504 0 -8 3.58496 -8 8v16c0 4.41504 3.58496 8 8 8h432zM439 272c4.41504 0 8 -3.58496 8 -8v-16c0 -4.41504 -3.58496 -8 -8 -8h-432
c-4.41504 0 -8 3.58496 -8 8v16c0 4.41504 3.58496 8 8 8h432z" />
    <glyph glyph-name="list" unicode="&#xf03a;" horiz-adv-x="512" 
d="M88 392c8.83105 0 16 -7.16895 16 -16v-48c0 -8.83105 -7.16895 -16 -16 -16h-48c-8.83105 0 -16 7.16895 -16 16v48c0 8.83105 7.16895 16 16 16h48zM88 232c8.83105 0 16 -7.16895 16 -16v-48c0 -8.83105 -7.16895 -16 -16 -16h-48c-8.83105 0 -16 7.16895 -16 16v48
c0 8.83105 7.16895 16 16 16h48zM88 72c8.83105 0 16 -7.16895 16 -16v-48c0 -8.83105 -7.16895 -16 -16 -16h-48c-8.83105 0 -16 7.16895 -16 16v48c0 8.83105 7.16895 16 16 16h48zM504 48c4.41504 0 8 -3.58496 8 -8v-16c0 -4.41504 -3.58496 -8 -8 -8h-336
c-4.41504 0 -8 3.58496 -8 8v16c0 4.41504 3.58496 8 8 8h336zM504 368c4.41504 0 8 -3.58496 8 -8v-16c0 -4.41504 -3.58496 -8 -8 -8h-336c-4.41504 0 -8 3.58496 -8 8v16c0 4.41504 3.58496 8 8 8h336zM504 208c4.41504 0 8 -3.58496 8 -8v-16
c0 -4.41504 -3.58496 -8 -8 -8h-336c-4.41504 0 -8 3.58496 -8 8v16c0 4.41504 3.58496 8 8 8h336z" />
    <glyph glyph-name="outdent" unicode="&#xf03b;" 
d="M100.69 84.71l-96 95.9697c-2.89453 2.89648 -4.68555 6.89941 -4.68555 11.3125s1.79102 8.41211 4.68555 11.3076l96 96c2.8418 2.90039 6.80273 4.69824 11.1797 4.7002h0.129883c8.83105 0 16 -7.16895 16 -16v-192
c-0.00488281 -8.82617 -7.16992 -15.9902 -15.9971 -15.9902h-0.142578c-4.375 0.000976562 -8.33301 1.7998 -11.1699 4.7002zM96 249.36l-57.3701 -57.3604l57.3701 -57.3604v114.721zM440 400c4.41504 0 8 -3.58496 8 -8v-16c0 -4.41504 -3.58496 -8 -8 -8h-432
c-4.41504 0 -8 3.58496 -8 8v16c0 4.41504 3.58496 8 8 8h432zM440 16c4.41504 0 8 -3.58496 8 -8v-16c0 -4.41504 -3.58496 -8 -8 -8h-432c-4.41504 0 -8 3.58496 -8 8v16c0 4.41504 3.58496 8 8 8h432zM440 144c4.41504 0 8 -3.58496 8 -8v-16
c0 -4.41504 -3.58496 -8 -8 -8h-240c-4.41504 0 -8 3.58496 -8 8v16c0 4.41504 3.58496 8 8 8h240zM440 272c4.41504 0 8 -3.58496 8 -8v-16c0 -4.41504 -3.58496 -8 -8 -8h-240c-4.41504 0 -8 3.58496 -8 8v16c0 4.41504 3.58496 8 8 8h240z" />
    <glyph glyph-name="indent" unicode="&#xf03c;" 
d="M27.3096 299.3l96 -95.9795c2.89453 -2.89648 4.68555 -6.89941 4.68555 -11.3125s-1.79102 -8.41211 -4.68555 -11.3076l-96 -96c-2.83008 -2.90137 -6.78223 -4.7002 -11.1504 -4.7002h-0.0292969h-0.129883c-8.83105 0 -16 7.16895 -16 16v192
c0 8.83105 7.16699 16.001 15.9971 16.001c0.0478516 0 0.0957031 -0.000976562 0.142578 -0.000976562c4.375 -0.000976562 8.33301 -1.79883 11.1699 -4.7002zM32 134.64l57.3701 57.3604l-57.3701 57.3604v-114.721zM440 400c4.41504 0 8 -3.58496 8 -8v-16
c0 -4.41504 -3.58496 -8 -8 -8h-432c-4.41504 0 -8 3.58496 -8 8v16c0 4.41504 3.58496 8 8 8h432zM440 16c4.41504 0 8 -3.58496 8 -8v-16c0 -4.41504 -3.58496 -8 -8 -8h-432c-4.41504 0 -8 3.58496 -8 8v16c0 4.41504 3.58496 8 8 8h432zM440 144
c4.41504 0 8 -3.58496 8 -8v-16c0 -4.41504 -3.58496 -8 -8 -8h-240c-4.41504 0 -8 3.58496 -8 8v16c0 4.41504 3.58496 8 8 8h240zM440 272c4.41504 0 8 -3.58496 8 -8v-16c0 -4.41504 -3.58496 -8 -8 -8h-240c-4.41504 0 -8 3.58496 -8 8v16c0 4.41504 3.58496 8 8 8h240z
" />
    <glyph glyph-name="tasks" unicode="&#xf0ae;" horiz-adv-x="512" 
d="M145.35 241l11.3105 -11.3398c1.4502 -1.44824 2.34766 -3.45215 2.34766 -5.66113s-0.897461 -4.21094 -2.34766 -5.65918l-88 -88c-1.44824 -1.44727 -3.44922 -2.3418 -5.65625 -2.3418s-4.20605 0.894531 -5.6543 2.3418l-56 56
c-1.44922 1.44824 -2.34668 3.45215 -2.34668 5.66113s0.897461 4.21094 2.34668 5.65918l11.3408 11.3398c1.44727 1.44727 3.44922 2.34277 5.65527 2.34277c2.20703 0 4.20605 -0.895508 5.6543 -2.34277l39 -39l71 71c1.44922 1.45898 3.45898 2.3623 5.67578 2.3623
s4.22461 -0.90332 5.67383 -2.3623zM62.9297 64c17.6611 0 32 -14.3389 32 -32s-14.3389 -32 -32 -32c-17.6699 0 -32.3994 14.3301 -32.3994 32s14.7295 32 32.3994 32zM145.35 401l11.3105 -11.3398c1.4502 -1.44824 2.34766 -3.45215 2.34766 -5.66113
s-0.897461 -4.21094 -2.34766 -5.65918l-88 -88c-1.44824 -1.44727 -3.44922 -2.3418 -5.65625 -2.3418s-4.20605 0.894531 -5.6543 2.3418l-56 56c-1.44922 1.44824 -2.34668 3.45215 -2.34668 5.66113s0.897461 4.21094 2.34668 5.65918l11.3408 11.3398
c1.44727 1.44727 3.44922 2.34277 5.65527 2.34277c2.20703 0 4.20605 -0.895508 5.6543 -2.34277l39 -39l71 71c1.44922 1.45898 3.45898 2.3623 5.67578 2.3623s4.22461 -0.90332 5.67383 -2.3623zM503 48c4.41504 0 8 -3.58496 8 -8v-16c0 -4.41504 -3.58496 -8 -8 -8
h-304c-4.41504 0 -8 3.58496 -8 8v16c0 4.41504 3.58496 8 8 8h304zM503 368c4.41504 0 8 -3.58496 8 -8v-16c0 -4.41504 -3.58496 -8 -8 -8h-304c-4.41504 0 -8 3.58496 -8 8v16c0 4.41504 3.58496 8 8 8h304zM503 208c4.41504 0 8 -3.58496 8 -8v-16
c0 -4.41504 -3.58496 -8 -8 -8h-304c-4.41504 0 -8 3.58496 -8 8v16c0 4.41504 3.58496 8 8 8h304z" />
    <glyph glyph-name="list-ul" unicode="&#xf0ca;" horiz-adv-x="512" 
d="M32.3896 224c17.6621 0 32 -14.3389 32 -32s-14.3379 -32 -32 -32c-17.6592 0 -32.3896 14.3301 -32.3896 32s14.7305 32 32.3896 32zM32.3896 384c17.6621 0 32 -14.3389 32 -32s-14.3379 -32 -32 -32c-17.6592 0 -32.3896 14.3301 -32.3896 32s14.7305 32 32.3896 32z
M32.3896 64c17.6621 0 32 -14.3389 32 -32s-14.3379 -32 -32 -32c-17.6592 0 -32.3896 14.3301 -32.3896 32s14.7305 32 32.3896 32zM504 368c4.41504 0 8 -3.58496 8 -8v-16c0 -4.41504 -3.58496 -8 -8 -8h-368c-4.41504 0 -8 3.58496 -8 8v16c0 4.41504 3.58496 8 8 8h368
zM504 208c4.41504 0 8 -3.58496 8 -8v-16c0 -4.41504 -3.58496 -8 -8 -8h-368c-4.41504 0 -8 3.58496 -8 8v16c0 4.41504 3.58496 8 8 8h368zM504 48c4.41504 0 8 -3.58496 8 -8v-16c0 -4.41504 -3.58496 -8 -8 -8h-368c-4.41504 0 -8 3.58496 -8 8v16
c0 4.41504 3.58496 8 8 8h368z" />
    <glyph glyph-name="list-ol" unicode="&#xf0cb;" horiz-adv-x="512" 
d="M61.7695 47c19.6104 -5.12012 28.7002 -20.5 28.7305 -34.8799c0 -21.3701 -14.3398 -44.1201 -48.5 -44.1201c-16.6104 0 -29.29 4.75 -37 9.44043c-5.82031 4.21973 -6.34961 9.80957 -2.62012 15.9395l5.58984 9.31055c3.86035 6.61914 9.11035 7 15.6006 3.11914
c4.7666 -1.95996 10.0098 -3.07617 15.4697 -3.11914c10.1602 0 14.3604 3.5 14.3604 8.21973c0 6.64941 -5.61035 9.08984 -15.9404 9.08984h-4.72949c-5.9502 0 -9.25 2.12012 -12.25 7.87988l-1.05078 1.92969c-2.44922 4.75 -1.19922 9.81055 2.80078 14.8809l5.60938 7
c3.4707 4.32715 7.09277 8.37988 11 12.3096h-22.8398c-4.41504 0 -8 3.58496 -8 8v16c0 4.41504 3.58496 8 8 8h57c7.5 0 11.3398 -4 11.3398 -11.3496v-3.31055c0.0136719 -0.299805 0.0175781 -0.595703 0.0175781 -0.899414
c0 -5.10449 -1.9248 -9.76367 -5.08789 -13.29zM12.0996 128c-7.01953 0 -12.0996 4 -12.0996 11.4102v4c0 47.2803 51 56.3994 50.9697 69.1201c0 7.18945 -5.9502 8.75 -9.2793 8.75c-0.0205078 0 -0.0429688 0.000976562 -0.0634766 0.000976562
c-3.6543 0 -6.96875 -1.46582 -9.38672 -3.84082c-5.12988 -4.91016 -10.5205 -7 -16.1299 -2.44043l-8.58008 6.87988c-5.79004 4.53027 -7.16992 9.78027 -2.79004 15.3701c6.64941 8.75 19.0898 18.75 40.4502 18.75c19.4697 0 44.4697 -10.5 44.4697 -39.5596
c0 -37.7607 -45.0498 -46.1504 -48.3301 -56.4404h38.6699c4.41504 0 8 -3.58496 8 -8v-16c0 -4.41504 -3.58496 -8 -8 -8h-67.9004zM16 288c-4.41504 0 -8 3.58496 -8 8v16c0 4.41504 3.58496 8 8 8h16v64h-8c-4.4082 0.0078125 -7.98145 3.59766 -7.98145 8.00781
c0 1.2832 0.303711 2.49707 0.841797 3.57227l8 16c1.31055 2.62012 4.01367 4.41406 7.13965 4.41992h24c4.41504 0 8 -3.58496 8 -8v-88h16c4.41504 0 8 -3.58496 8 -8v-16c0 -4.41504 -3.58496 -8 -8 -8h-64zM504 368c4.41504 0 8 -3.58496 8 -8v-16
c0 -4.41504 -3.58496 -8 -8 -8h-336c-4.41504 0 -8 3.58496 -8 8v16c0 4.41504 3.58496 8 8 8h336zM504 48c4.41504 0 8 -3.58496 8 -8v-16c0 -4.41504 -3.58496 -8 -8 -8h-336c-4.41504 0 -8 3.58496 -8 8v16c0 4.41504 3.58496 8 8 8h336zM504 208
c4.41504 0 8 -3.58496 8 -8v-16c0 -4.41504 -3.58496 -8 -8 -8h-336c-4.41504 0 -8 3.58496 -8 8v16c0 4.41504 3.58496 8 8 8h336z" />
    <glyph glyph-name="strikethrough" unicode="&#xf0cc;" horiz-adv-x="512" 
d="M361.36 128h40.4297c9.02441 -15.4531 14.2676 -33.4307 14.2676 -52.6016c0 -4.76367 -0.319336 -9.45312 -0.9375 -14.0488c-4.83984 -36.2598 -29.46 -67.8398 -63 -82.4395c-15.9424 -6.9502 -33.6367 -10.8809 -52.1201 -10.9102h-66
c-0.132812 0 -0.235352 -0.00292969 -0.369141 -0.00292969c-49.4199 0 -91.292 32.5791 -105.291 77.4131c-0.196289 0.694336 -0.297852 1.4248 -0.297852 2.18164c0 3.83105 2.69922 7.03711 6.29785 7.81836l15.6504 3.64941
c0.550781 0.119141 1.11523 0.181641 1.70117 0.181641c3.64453 0 6.72852 -2.4209 7.72852 -5.74121c10.4023 -31.0859 39.7471 -53.5 74.3145 -53.5h0.265625h65.9404c13.9551 0.0195312 27.3145 2.98926 39.3496 8.24023c21.5195 9.38965 38.21 28.5195 43.0703 51.5195
c1.10547 5.0293 1.71191 10.207 1.71191 15.5664c0 20.7402 -8.72949 39.457 -22.7119 52.6738zM169.25 224c-25.7305 18.5459 -42.4004 48.7129 -42.4004 82.8223v0.237305c0 41.3906 22.1807 77.3506 57.9004 95.21c17.4854 8.71191 37.3203 13.7002 58.1602 13.7305
h47.8594c53.9463 -0.0556641 100.749 -30.3564 124.36 -74.9805c0.550781 -1.08984 0.873047 -2.32617 0.873047 -3.62988c0 -3.28613 -1.9707 -6.11523 -4.79297 -7.37012l-14.5996 -6.61914c-0.980469 -0.428711 -2.06445 -0.678711 -3.20117 -0.678711
c-3.1084 0 -5.80469 1.77637 -7.12891 4.36816c-18.4092 33.9141 -54.2539 56.8584 -95.5107 56.9102h-47.8594c-15.6982 -0.0205078 -30.6396 -3.77734 -43.8105 -10.3398c-23.4727 -11.5859 -39.6895 -35.541 -40.2295 -63.3398
c-0.709961 -29.25 14.5098 -54.3799 39.29 -66.71l39.3701 -19.6104h-68.2803zM504 192c4.41504 0 8 -3.58496 8 -8v-16c0 -4.41504 -3.58496 -8 -8 -8h-496c-4.41504 0 -8 3.58496 -8 8v16c0 4.41504 3.58496 8 8 8h496z" />
    <glyph glyph-name="underline" unicode="&#xf0cd;" 
d="M440 448c4.41504 0 8 -3.58496 8 -8v-16c0 -4.41504 -3.58496 -8 -8 -8h-56v-224c0 -88.2197 -71.7803 -160 -160 -160s-160 71.7803 -160 160v224h-56c-4.41504 0 -8 3.58496 -8 8v16c0 4.41504 3.58496 8 8 8h144c4.41504 0 8 -3.58496 8 -8v-16
c0 -4.41504 -3.58496 -8 -8 -8h-56v-224c0 -70.6455 57.3545 -128 128 -128s128 57.3545 128 128v224h-56c-4.41504 0 -8 3.58496 -8 8v16c0 4.41504 3.58496 8 8 8h144zM440 -32c4.41504 0 8 -3.58496 8 -8v-16c0 -4.41504 -3.58496 -8 -8 -8h-432
c-4.41504 0 -8 3.58496 -8 8v16c0 4.41504 3.58496 8 8 8h432z" />
    <glyph glyph-name="sort-alpha-down" unicode="&#xf15d;" 
d="M432 160c4.41504 0 8 -3.58496 8 -8v-10.9297c-0.000976562 -3.42188 -1.08691 -6.6084 -2.91992 -9.20996l-92.8896 -131.86h87.8096c4.41504 0 8 -3.58496 8 -8v-16c0 -4.41504 -3.58496 -8 -8 -8h-128c-4.41504 0 -8 3.58496 -8 8v10.9297
c0.000976562 3.42188 1.08691 6.6084 2.91992 9.20996l92.7598 131.79l-87.6797 0.0703125c-4.41504 0 -8 3.58496 -8 8v16c0 4.41504 3.58496 8 8 8h128zM447.29 240.06c0.456055 -1.2666 0.706055 -2.63672 0.706055 -4.06055
c0 -6.58105 -5.31055 -11.9326 -11.876 -11.999h-11.4199c-5.1875 0.0126953 -9.59473 3.35352 -11.2002 8l-15.3398 44.3604h-60.8506l-15.0996 -44.2705c-1.57227 -4.69043 -5.99609 -8.07422 -11.21 -8.08984h-11.1201
c-6.56543 0.0664062 -11.874 5.42188 -11.874 12.0039c0 1.42285 0.248047 2.78906 0.704102 4.05566l59.7598 168c1.61816 4.6123 6.00293 7.92285 11.1602 7.94043h16.7402c5.15723 -0.0175781 9.54199 -3.32812 11.1602 -7.94043zM347.39 307.42h40.7402
s-19.3701 56.8604 -20.2402 60c-0.879883 -3.12988 -20.5 -60 -20.5 -60zM198.93 76.4199l5.58984 -5.62988c2.15527 -2.16992 3.4873 -5.16016 3.4873 -8.45605c0 -3.34277 -1.36914 -6.36719 -3.57715 -8.54395l-84 -82.3203
c-2.16016 -2.15625 -5.14551 -3.49023 -8.43652 -3.49023s-6.27246 1.33398 -8.43359 3.49023l-84.0596 82.2998c-2.18066 2.17383 -3.53125 5.18262 -3.53125 8.50195s1.35059 6.3252 3.53125 8.49805l5.63965 5.66016c2.1709 2.15723 5.16406 3.49121 8.46191 3.49121
c3.29883 0 6.28809 -1.33398 8.45801 -3.49121l53.9404 -52.3496v383.92c0 4.41504 3.58496 8 8 8h16.0195c4.41602 0 8 -3.58496 8 -8v-384.16l54 52.6699c2.1582 2.14453 5.13281 3.4707 8.41211 3.4707c3.3252 0 6.33398 -1.36328 8.49805 -3.56055z" />
    <glyph glyph-name="sort-alpha-up" unicode="&#xf15e;" 
d="M120.44 412.49l84.0596 -82.2598c2.18066 -2.17383 3.53125 -5.18262 3.53125 -8.50195s-1.35059 -6.3252 -3.53125 -8.49805l-5.63965 -5.66016c-2.1709 -2.15723 -5.16406 -3.49121 -8.46191 -3.49121c-3.29883 0 -6.28809 1.33398 -8.45801 3.49121l-53.9404 52.3496
v-383.92c0 -4.41504 -3.58496 -8 -8 -8h-16c-4.41504 0 -8 3.58496 -8 8v384.14l-54 -52.7393c-2.15723 -2.14453 -5.13184 -3.47168 -8.41113 -3.47168c-3.3252 0 -6.33496 1.36328 -8.49902 3.56152l-5.60938 5.67969c-2.15527 2.16992 -3.4873 5.16016 -3.4873 8.45605
c0 3.34277 1.36914 6.36719 3.57715 8.54395l84 82.3203c2.16016 2.15625 5.14551 3.49023 8.43652 3.49023s6.27246 -1.33398 8.43359 -3.49023zM447.29 240.06c0.456055 -1.2666 0.706055 -2.63672 0.706055 -4.06055c0 -6.58105 -5.31055 -11.9326 -11.876 -11.999
h-11.4199c-5.1875 0.0126953 -9.59473 3.35352 -11.2002 8l-15.3398 44.3604h-60.8506l-15.0996 -44.2705c-1.57227 -4.69043 -5.99609 -8.07422 -11.21 -8.08984h-11.1201c-6.56543 0.0664062 -11.874 5.42188 -11.874 12.0039
c0 1.42285 0.248047 2.78906 0.704102 4.05566l59.7598 168c1.61816 4.6123 6.00293 7.92285 11.1602 7.94043h16.7402c5.15723 -0.0175781 9.54199 -3.32812 11.1602 -7.94043zM347.39 307.42h40.7402s-19.3701 56.8604 -20.2402 60
c-0.879883 -3.12988 -20.5 -60 -20.5 -60zM432 160c4.41504 0 8 -3.58496 8 -8v-10.9297c-0.000976562 -3.42188 -1.08691 -6.6084 -2.91992 -9.20996l-92.8896 -131.86h87.8096c4.41504 0 8 -3.58496 8 -8v-16c0 -4.41504 -3.58496 -8 -8 -8h-128
c-4.41504 0 -8 3.58496 -8 8v10.9297c0.000976562 3.42188 1.08691 6.6084 2.91992 9.20996l92.7598 131.79l-87.6797 0.0703125c-4.41504 0 -8 3.58496 -8 8v16c0 4.41504 3.58496 8 8 8h128z" />
    <glyph glyph-name="sort-amount-down" unicode="&#xf160;" horiz-adv-x="512" 
d="M376 160c4.41504 0 8 -3.58496 8 -8v-16c0 -4.41504 -3.58496 -8 -8 -8h-112c-4.41504 0 -8 3.58496 -8 8v16c0 4.41504 3.58496 8 8 8h112zM312 64c4.41504 0 8 -3.58496 8 -8v-16c0 -4.41504 -3.58496 -8 -8 -8h-48c-4.41504 0 -8 3.58496 -8 8v16
c0 4.41504 3.58496 8 8 8h48zM504 352c4.41504 0 8 -3.58496 8 -8v-16c0 -4.41504 -3.58496 -8 -8 -8h-240c-4.41504 0 -8 3.58496 -8 8v16c0 4.41504 3.58496 8 8 8h240zM440 256c4.41504 0 8 -3.58496 8 -8v-16c0 -4.41504 -3.58496 -8 -8 -8h-176
c-4.41504 0 -8 3.58496 -8 8v16c0 4.41504 3.58496 8 8 8h176zM198.93 76.4404l5.58984 -5.65039c2.15527 -2.16992 3.4873 -5.16016 3.4873 -8.45605c0 -3.34277 -1.36914 -6.36719 -3.57715 -8.54395l-84 -82.3203c-2.16016 -2.15625 -5.14551 -3.49023 -8.43652 -3.49023
s-6.27246 1.33398 -8.43359 3.49023l-84.0596 82.2998c-2.18066 2.17383 -3.53125 5.18262 -3.53125 8.50195s1.35059 6.3252 3.53125 8.49805l5.63965 5.66016c2.1709 2.15723 5.16406 3.49121 8.46191 3.49121c3.29883 0 6.28809 -1.33398 8.45801 -3.49121
l53.9404 -52.3496v383.92c0 4.41504 3.58496 8 8 8h16.0195c4.41602 0 8 -3.58496 8 -8v-384.14l54 52.6699c2.1582 2.14453 5.13281 3.4707 8.41211 3.4707c3.3252 0 6.33398 -1.36328 8.49805 -3.56055z" />
    <glyph glyph-name="sort-amount-up" unicode="&#xf161;" horiz-adv-x="512" 
d="M312 64c4.41504 0 8 -3.58496 8 -8v-16c0 -4.41504 -3.58496 -8 -8 -8h-48c-4.41504 0 -8 3.58496 -8 8v16c0 4.41504 3.58496 8 8 8h48zM376 160c4.41504 0 8 -3.58496 8 -8v-16c0 -4.41504 -3.58496 -8 -8 -8h-112c-4.41504 0 -8 3.58496 -8 8v16
c0 4.41504 3.58496 8 8 8h112zM504 352c4.41504 0 8 -3.58496 8 -8v-16c0 -4.41504 -3.58496 -8 -8 -8h-240c-4.41504 0 -8 3.58496 -8 8v16c0 4.41504 3.58496 8 8 8h240zM440 256c4.41504 0 8 -3.58496 8 -8v-16c0 -4.41504 -3.58496 -8 -8 -8h-176
c-4.41504 0 -8 3.58496 -8 8v16c0 4.41504 3.58496 8 8 8h176zM120.44 412.49l84.0596 -82.2598c2.18066 -2.17383 3.53125 -5.18262 3.53125 -8.50195s-1.35059 -6.3252 -3.53125 -8.49805l-5.63965 -5.66016c-2.1709 -2.15723 -5.16406 -3.49121 -8.46191 -3.49121
c-3.29883 0 -6.28809 1.33398 -8.45801 3.49121l-53.9404 52.3496v-383.92c0 -4.41504 -3.58496 -8 -8 -8h-16c-4.41504 0 -8 3.58496 -8 8v384.14l-54 -52.7393c-2.15723 -2.14453 -5.13184 -3.47168 -8.41113 -3.47168c-3.3252 0 -6.33496 1.36328 -8.49902 3.56152
l-5.60938 5.67969c-2.15527 2.16992 -3.4873 5.16016 -3.4873 8.45605c0 3.34277 1.36914 6.36719 3.57715 8.54395l84 82.3203c2.16016 2.15625 5.14551 3.49023 8.43652 3.49023s6.27246 -1.33398 8.43359 -3.49023z" />
    <glyph glyph-name="sort-numeric-down" unicode="&#xf162;" 
d="M344.49 190.52c4.9707 1.08496 10.085 1.65723 15.3799 1.65723c39.7783 0 72.0801 -32.2695 72.1299 -72.0371v-40c-0.0869141 -58.916 -45.8057 -107.25 -103.62 -111.659c-0.12793 -0.00683594 -0.250977 -0.0107422 -0.379883 -0.0107422c-4.41602 0 -8 3.58496 -8 8
v0.0605469v16.0693c0.0703125 4.22168 3.39648 7.66211 7.57031 7.91992c33.1602 3.14062 60.2393 26.7803 69.0801 58c-10.8838 -6.6123 -23.6816 -10.4688 -37.3369 -10.4688c-39.7383 0 -72 32.2617 -72 72c0 34.6572 24.54 63.6279 57.1768 70.4688zM360 80.1396
c22.0762 0 40 17.9238 40 40c0 22.0771 -17.9238 40 -40 40s-40 -17.9229 -40 -40c0 -22.0762 17.9238 -40 40 -40zM424 256c4.41504 0 8 -3.58496 8 -8v-16c0 -4.41504 -3.58496 -8 -8 -8h-112c-4.41504 0 -8 3.58496 -8 8v16c0 4.41504 3.58496 8 8 8h40v96h-16
c-8.83105 0 -15.9922 7.18652 -15.9922 16.0166c0 3.10645 0.887695 6.00781 2.42188 8.46387l20 32c2.82812 4.52441 7.84668 7.51953 13.5703 7.51953h12c8.83105 0 16 -7.16895 16 -16v-144h40zM198.93 76.4404l5.58984 -5.65039
c2.15527 -2.16992 3.4873 -5.16016 3.4873 -8.45605c0 -3.34277 -1.36914 -6.36719 -3.57715 -8.54395l-84 -82.3203c-2.16016 -2.15625 -5.14551 -3.49023 -8.43652 -3.49023s-6.27246 1.33398 -8.43359 3.49023l-84.0596 82.2998
c-2.18066 2.17383 -3.53125 5.18262 -3.53125 8.50195s1.35059 6.3252 3.53125 8.49805l5.63965 5.66016c2.1709 2.15723 5.16406 3.49121 8.46191 3.49121c3.29883 0 6.28809 -1.33398 8.45801 -3.49121l53.9404 -52.3496v383.92c0 4.41504 3.58496 8 8 8h16.0195
c4.41602 0 8 -3.58496 8 -8v-384.14l54 52.6699c2.1582 2.14453 5.13281 3.4707 8.41211 3.4707c3.3252 0 6.33398 -1.36328 8.49805 -3.56055z" />
    <glyph glyph-name="sort-numeric-up" unicode="&#xf163;" 
d="M424 256c4.41504 0 8 -3.58496 8 -8v-16c0 -4.41504 -3.58496 -8 -8 -8h-112c-4.41504 0 -8 3.58496 -8 8v16c0 4.41504 3.58496 8 8 8h40v96h-16c-8.83105 0 -15.9922 7.18652 -15.9922 16.0166c0 3.10645 0.887695 6.00781 2.42188 8.46387l20 32
c2.82812 4.52441 7.84668 7.51953 13.5703 7.51953h12c8.83105 0 16 -7.16895 16 -16v-144h40zM344.49 190.52c4.9707 1.08496 10.085 1.65723 15.3799 1.65723c39.7783 0 72.0801 -32.2695 72.1299 -72.0371v-40c-0.0869141 -58.916 -45.8057 -107.25 -103.62 -111.659
c-0.12793 -0.00683594 -0.250977 -0.0107422 -0.379883 -0.0107422c-4.41602 0 -8 3.58496 -8 8v0.0605469v16.0693c0.0703125 4.22168 3.39648 7.66211 7.57031 7.91992c33.1602 3.14062 60.2393 26.7803 69.0801 58c-10.8838 -6.6123 -23.6816 -10.4688 -37.3369 -10.4688
c-39.7383 0 -72 32.2617 -72 72c0 34.6572 24.54 63.6279 57.1768 70.4688zM360 80.1396c22.0762 0 40 17.9238 40 40c0 22.0771 -17.9238 40 -40 40s-40 -17.9229 -40 -40c0 -22.0762 17.9238 -40 40 -40zM120.44 412.49l84.0596 -82.2598
c2.18066 -2.17383 3.53125 -5.18262 3.53125 -8.50195s-1.35059 -6.3252 -3.53125 -8.49805l-5.63965 -5.66016c-2.1709 -2.15723 -5.16406 -3.49121 -8.46191 -3.49121c-3.29883 0 -6.28809 1.33398 -8.45801 3.49121l-53.9404 52.3496v-383.92
c0 -4.41504 -3.58496 -8 -8 -8h-16c-4.41504 0 -8 3.58496 -8 8v384.14l-54 -52.7393c-2.15723 -2.14453 -5.13184 -3.47168 -8.41113 -3.47168c-3.3252 0 -6.33496 1.36328 -8.49902 3.56152l-5.60938 5.67969c-2.15527 2.16992 -3.4873 5.16016 -3.4873 8.45605
c0 3.34277 1.36914 6.36719 3.57715 8.54395l84 82.3203c2.16016 2.15625 5.14551 3.49023 8.43652 3.49023s6.27246 -1.33398 8.43359 -3.49023z" />
    <glyph glyph-name="paragraph" unicode="&#xf1dd;" 
d="M440 416c4.41504 0 8 -3.58496 8 -8v-16c0 -4.41504 -3.58496 -8 -8 -8h-56v-408c0 -4.41504 -3.58496 -8 -8 -8h-16c-4.41504 0 -8 3.58496 -8 8v408h-64v-408c0 -4.41504 -3.58496 -8 -8 -8h-16c-4.41504 0 -8 3.58496 -8 8v120h-26.5195
c-85.2207 0 -159.631 64.3496 -165.131 149.35c-0.237305 3.56543 -0.349609 7.02539 -0.349609 10.6504c0 88.3066 71.6934 160 160 160h216zM256 128v256h-32c-70.6455 0 -128 -57.3545 -128 -128s57.3545 -128 128 -128h32z" />
    <glyph glyph-name="h1" unicode="&#xf313;" horiz-adv-x="576" 
d="M312 352c4.41504 0 8 -3.58496 8 -8v-16c0 -4.41504 -3.58496 -8 -8 -8h-40v-256h40c4.41504 0 8 -3.58496 8 -8v-16c0 -4.41504 -3.58496 -8 -8 -8h-112c-4.41504 0 -8 3.58496 -8 8v16c0 4.41504 3.58496 8 8 8h40v112h-160v-112h40c4.41504 0 8 -3.58496 8 -8v-16
c0 -4.41504 -3.58496 -8 -8 -8h-112c-4.41504 0 -8 3.58496 -8 8v16c0 4.41504 3.58496 8 8 8h40v256h-40c-4.41504 0 -8 3.58496 -8 8v16c0 4.41504 3.58496 8 8 8h112c4.41504 0 8 -3.58496 8 -8v-16c0 -4.41504 -3.58496 -8 -8 -8h-40v-112h160v112h-40
c-4.41504 0 -8 3.58496 -8 8v16c0 4.41504 3.58496 8 8 8h112zM568 64c4.41504 0 8 -3.58496 8 -8v-16c0 -4.41504 -3.58496 -8 -8 -8h-176c-4.41504 0 -8 3.58496 -8 8v16c0 4.41504 3.58496 8 8 8h73.6299v249.38l-31 -31
c-1.44824 -1.4502 -3.45215 -2.34766 -5.66113 -2.34766s-4.20996 0.897461 -5.65918 2.34766l-11.3096 11.3105c-1.44727 1.44727 -2.34277 3.44922 -2.34277 5.65527c0 2.20703 0.895508 4.20605 2.34277 5.6543l42.3496 42.3096
c2.89551 2.89746 6.89648 4.68848 11.3105 4.69043h16c8.83008 0 16 -7.16895 16 -16v-272h70.3398z" />
    <glyph glyph-name="h2" unicode="&#xf314;" horiz-adv-x="576" 
d="M312 352c4.41504 0 8 -3.58496 8 -8v-16c0 -4.41504 -3.58496 -8 -8 -8h-40v-256h40c4.41504 0 8 -3.58496 8 -8v-16c0 -4.41504 -3.58496 -8 -8 -8h-112c-4.41504 0 -8 3.58496 -8 8v16c0 4.41504 3.58496 8 8 8h40v112h-160v-112h40c4.41504 0 8 -3.58496 8 -8v-16
c0 -4.41504 -3.58496 -8 -8 -8h-112c-4.41504 0 -8 3.58496 -8 8v16c0 4.41504 3.58496 8 8 8h40v256h-40c-4.41504 0 -8 3.58496 -8 8v16c0 4.41504 3.58496 8 8 8h112c4.41504 0 8 -3.58496 8 -8v-16c0 -4.41504 -3.58496 -8 -8 -8h-40v-112h160v112h-40
c-4.41504 0 -8 3.58496 -8 8v16c0 4.41504 3.58496 8 8 8h112zM552 64c4.41504 0 8 -3.58496 8 -8v-16.0303c0 -4.41504 -3.58496 -8 -8 -8h-171.47c-0.0244141 0 -0.0478516 0.0126953 -0.0722656 0.0126953c-6.17676 0 -11.2686 4.67578 -11.9277 10.6777
c-0.310547 3.37012 -0.5 6.95996 -0.5 11.1797c0 110.311 161.12 124.97 161.12 207.311c0 33.9795 -26.0605 57.6992 -63.3701 57.6992c-25.5605 0 -48.7803 -14.7598 -63.2803 -33.7598c-2.20801 -2.94531 -5.7334 -4.83594 -9.69434 -4.83594
c-2.45801 0 -4.74609 0.735352 -6.65527 1.99609l-7.15039 4.75c-3.20508 2.11719 -5.30273 5.75684 -5.30273 9.88184c0 2.46875 0.757812 4.76074 2.05273 6.6582c18.8096 27.6904 53.3096 48.46 91.8096 48.46c60.8203 0 97.75 -39.0596 97.75 -89.0596
c0 -104.311 -155.399 -120.181 -159.239 -198.94h145.93z" />
    <glyph glyph-name="h3" unicode="&#xf315;" horiz-adv-x="576" 
d="M476.8 224.36c53.2998 -4.4502 98.2998 -35.7705 98.2002 -93.0703c0 -55.71 -47.2598 -99.29 -107.53 -99.2803c-37.4395 0 -73.7998 16.46 -96.4395 36.46c-2.44727 2.12012 -3.98535 5.25488 -3.98535 8.74316c0 2.79395 0.993164 5.35742 2.64551 7.35742
l6.43945 7.89941c2.29785 2.75488 5.75781 4.49902 9.62207 4.49902c3.10547 0 5.94922 -1.13379 8.1377 -3.00879c32.1602 -28.0195 87.2207 -43.29 124.16 -9.62988c12.5176 11.4004 20.3965 27.7852 20.54 46c-0.0195312 41.3799 -36.3398 64.29 -78.7803 64.29h-15.1094
c-0.0400391 -0.000976562 -0.0712891 -0.00976562 -0.110352 -0.00976562c-5.00586 0 -9.31445 3.01074 -11.21 7.31934l-2.75 6.41992c-0.586914 1.39355 -0.915039 2.9375 -0.915039 4.54297c0 2.95703 1.10059 5.65918 2.91504 7.71777l76.3203 86.4395
c4.76953 5.39062 9.14941 9.82031 12.4199 12.9502h-130.37c-4.41504 0 -8 3.58496 -8 8v16c0 4.41504 3.58496 8 8 8h167.26c0.0615234 0.000976562 0.121094 -0.00292969 0.182617 -0.00292969c6.59668 0 11.9678 -5.29102 12.0977 -11.8574v-6.70996
c-0.00195312 -2.99902 -1.13867 -5.74023 -3 -7.80957zM311 352c4.41504 0 8 -3.58496 8 -8v-16c0 -4.41504 -3.58496 -8 -8 -8h-40v-256h40c4.41504 0 8 -3.58496 8 -8v-16c0 -4.41504 -3.58496 -8 -8 -8h-112c-4.41504 0 -8 3.58496 -8 8v16c0 4.41504 3.58496 8 8 8h40
v112h-160v-112h40c4.41504 0 8 -3.58496 8 -8v-16c0 -4.41504 -3.58496 -8 -8 -8h-112c-4.41504 0 -8 3.58496 -8 8v16c0 4.41504 3.58496 8 8 8h40v256h-40c-4.41504 0 -8 3.58496 -8 8v16c0 4.41504 3.58496 8 8 8h112c4.41504 0 8 -3.58496 8 -8v-16
c0 -4.41504 -3.58496 -8 -8 -8h-40v-112h160v112h-40c-4.41504 0 -8 3.58496 -8 8v16c0 4.41504 3.58496 8 8 8h112z" />
    <glyph glyph-name="alarm-clock" unicode="&#xf34e;" horiz-adv-x="512" 
d="M32 336c0.102539 -13.2471 3.52539 -25.8164 9.40039 -36.75c-6.50293 -10.0684 -12.3398 -20.6689 -17.4004 -31.6396c-14.8301 18.9795 -24 42.5293 -24 68.3896c0.0771484 61.7783 50.2217 111.923 112 112c33.8604 0 63.8896 -15.4199 84.4404 -39.2002
c-11.7246 -2.77637 -23.4082 -6.4541 -34.4404 -10.7998c-13.6064 11.1738 -31.0527 17.9326 -50 18c-44.1299 -0.0498047 -79.9502 -35.8701 -80 -80zM400 448c61.7783 -0.0771484 111.923 -50.2217 112 -112c0 -25.8604 -9.20996 -49.3896 -24 -68.3896
c-5.0498 10.9521 -10.874 21.5361 -17.3604 31.5898c5.86133 10.9365 9.27051 23.5039 9.36035 36.75c-0.0498047 44.1299 -35.8701 79.9502 -80 80c-18.9473 -0.0673828 -36.3936 -6.82617 -50 -18c-11.0322 4.34473 -22.7158 8.02344 -34.4404 10.7998
c20.5508 23.8301 50.5801 39.25 84.4404 39.25zM256 384c123.71 0 224 -100.29 224 -224c0 -0.0283203 -0.0449219 -0.167969 -0.0449219 -0.196289c0 -55.9854 -20.6855 -107.178 -54.8252 -146.344l52.5 -52.4902c1.4502 -1.44824 2.34766 -3.45117 2.34766 -5.66113
c0 -2.20898 -0.897461 -4.20996 -2.34766 -5.6582l-11.3096 -11.3105c-1.44824 -1.4502 -3.45215 -2.34766 -5.66113 -2.34766c-2.20996 0 -4.21094 0.897461 -5.65918 2.34766l-52.46 52.5303c-39.2061 -34.123 -90.6475 -54.7939 -146.653 -54.7939
c-56.0049 0 -107.221 20.6709 -146.427 54.7939l-52.4902 -52.5c-1.44824 -1.4502 -3.45117 -2.34766 -5.66113 -2.34766c-2.20898 0 -4.20996 0.897461 -5.6582 2.34766l-11.3105 11.3096c-1.4502 1.44824 -2.34766 3.45215 -2.34766 5.66113
c0 2.20996 0.897461 4.21094 2.34766 5.65918l52.5 52.46c-34.1211 39.1611 -54.8398 90.4502 -54.8398 146.419v0.121094c0 123.71 100.29 224 224 224zM256 -32c105.87 0 192 86.1299 192 192s-86.1299 192 -192 192s-192 -86.1299 -192 -192s86.1299 -192 192 -192z
M270.38 151.69l67.75 -54.1709c1.83496 -1.46582 3.00293 -3.72559 3.00293 -6.25488c0 -1.88867 -0.65625 -3.625 -1.75293 -4.99512l-10 -12.5c-1.4668 -1.83398 -3.72559 -3.00195 -6.25488 -3.00195c-1.88867 0 -3.62598 0.65625 -4.99512 1.75195l-73.75 59
c-3.66113 2.93164 -5.99707 7.43164 -6 12.4805v136c0 4.41504 3.58496 8 8 8h16c4.41504 0 8 -3.58496 8 -8v-128.31z" />
    <glyph glyph-name="chess" unicode="&#xf439;" horiz-adv-x="512" 
d="M400 128v-32h-32v32c0 8.83105 7.16895 16 16 16s16 -7.16895 16 -16zM503.16 12.4297c5.24805 -2.62598 8.83984 -8.0459 8.83984 -14.3096v-46.1201c0 -8.83105 -7.16895 -16 -16 -16h-224c-8.83105 0 -16 7.16895 -16 16c0 -8.83105 -7.16895 -16 -16 -16h-223.97
c-8.83105 0 -16 7.16895 -16 16v46.1104c0 1.30957 0.700195 2.39941 1 3.63965c1.10938 4.49023 3.55957 8.5498 7.80957 10.6797l23.1602 11.5703v24c0 8.83105 7.16895 16 16 16h6.40039c6.04004 30.1602 9.59961 60.7598 9.59961 91.4697v36.5303h-24
c-4.41504 0 -8 3.58496 -8 8v16c0 4.41504 3.58496 8 8 8h16.9102l-31.8203 84.75c-1.3125 3.49609 -2.04297 7.29688 -2.04297 11.25c0 17.6611 14.3379 32 32 32h0.0429688h56.9102v32h-24c-4.41504 0 -8 3.58496 -8 8v16c0 4.41504 3.58496 8 8 8h24v24
c0 4.41504 3.58496 8 8 8h16c4.41504 0 8 -3.58496 8 -8v-24h24c4.41504 0 8 -3.58496 8 -8v-16c0 -4.41504 -3.58496 -8 -8 -8h-24v-32h56.9102c0.0107422 0 0.00976562 -0.0136719 0.0205078 -0.0136719c17.6611 0 32 -14.3389 32 -32
c0 -3.94238 -0.714844 -7.71777 -2.02051 -11.2061l-31.8105 -84.7803h16.9004c4.41504 0 8 -3.58496 8 -8v-16c0 -4.41504 -3.58496 -8 -8 -8h-24v-36.5303c0 -30.7197 3.59961 -61.3096 9.59961 -91.4697h6.40039c8.83105 0 16 -7.16895 16 -16v-24l23.1602 -11.5703
c5.24805 -2.62598 8.83984 -8.0459 8.83984 -14.3096c0.000976562 6.26562 3.59668 11.6855 8.84961 14.3096l23.1504 11.5703v24c0 8.83105 7.16895 16 16 16h1.09961l2.82031 82.2402l-24.5703 20.7598c-6.93945 5.8623 -11.3359 14.6162 -11.3496 24.4004v80.5996
c0 8.83105 7.16895 16 16 16h192c8.83105 0 16 -7.16895 16 -16v-80.54c0 -0.0107422 0.0185547 -0.0126953 0.0185547 -0.0234375c0 -9.79297 -4.40918 -18.5645 -11.3486 -24.4365l-24.5996 -20.79l2.83008 -82.21h1.09961c8.83105 0 16 -7.16895 16 -16v-24zM55.0898 320
l36 -96h73.8506l36 96h-145.851zM168.88 64c-5.69141 29.7617 -8.73633 60.0928 -8.87988 91.4697v36.5303h-64v-36.5303c-0.143555 -31.377 -3.18848 -61.708 -8.87988 -91.4697h81.7598zM224 -32v20.2197l-32 16v27.7803h-128v-27.7803l-32 -16v-20.2197h192zM304 191.4
l24.5801 -20.7803l11.8604 -10l-0.530273 -15.5205l-2.79004 -81.0996h93.7598l-2.79004 81.1396l-0.530273 15.5l11.8408 10l24.5996 20.8203v64.54h-32v-32h-32v32h-32v-32h-32v32h-32v-64.5996zM480 -32v20.2197l-32 16v27.7803h-128v-27.7803l-32 -16v-20.2197h192z" />
    <glyph glyph-name="chess-bishop" unicode="&#xf43a;" horiz-adv-x="320" 
d="M64 48c-33.8604 10.7598 -64 44.3604 -64 96c0 72.6396 66.4297 194.57 119 240h82c52.5703 -45.4297 119 -167.36 119 -240c0 -51.6396 -30.1396 -85.2402 -64 -96v-48h-32v71.4102l22.3096 7.08984c20.1504 6.40039 41.6904 26.9805 41.6904 65.5
c0 25.6504 -10.9102 60.2305 -26.54 94.8096l-76.4297 -76.4395c-1.44824 -1.4502 -3.45215 -2.34766 -5.66113 -2.34766c-2.20996 0 -4.21094 0.897461 -5.65918 2.34766l-11.3096 11.3096c-1.4502 1.44824 -2.34766 3.45215 -2.34766 5.66113
c0 2.20996 0.897461 4.21094 2.34766 5.65918l84 84c-17.8105 33 -38.71 63.5195 -58 83h-56.8008c-44.8799 -45.3301 -99.5996 -149.71 -99.5996 -208c0 -38.5195 21.54 -59.0996 41.6904 -65.5l22.3096 -7.08984v-71.4102h-32v48zM312 -32c4.41504 0 8 -3.58496 8 -8v-16
c0 -4.41504 -3.58496 -8 -8 -8h-304c-4.41504 0 -8 3.58496 -8 8v16c0 4.41504 3.58496 8 8 8h304zM112 416c-8.83105 0 -16 7.16895 -16 16s7.16895 16 16 16h96c8.83105 0 16 -7.16895 16 -16s-7.16895 -16 -16 -16h-96z" />
    <glyph glyph-name="chess-bishop-alt" unicode="&#xf43b;" horiz-adv-x="256" 
d="M247.16 12.4199c5.24805 -2.62598 8.83984 -8.0459 8.83984 -14.3096v-46.1104c0 -8.83105 -7.16895 -16 -16 -16h-224c-8.83105 0 -16 7.16895 -16 16v46.1104c0.000976562 6.26562 3.59668 11.6855 8.84961 14.3096l23.1504 11.5801v16c0 13.2461 10.7539 24 24 24
h-1.41016c5.99707 31.2285 9.19043 63.0605 9.31055 96h-23.9004c-4.41504 0 -8 3.58496 -8 8v16c0 4.41504 3.58496 8 8 8h9.4502c-19.6504 21.4297 -17.1006 51.8203 -17.1006 52.5195c0 49.1406 36.4404 117.48 70.7402 139.48h1.07031c-8.83105 0 -16 7.16895 -16 16
s7.16895 16 16 16h48c8.83008 0 16 -7.16895 16 -16s-7.16992 -16 -16 -16h1.09961c34.1504 -21.9102 70.5898 -89.9902 70.5898 -139.39c0 -0.860352 2.57031 -31.25 -17.0596 -52.6104h9.20996c4.41504 0 8 -3.58496 8 -8v-16c0 -4.41504 -3.58496 -8 -8 -8h-23.9004
c0.120117 -32.9395 3.31348 -64.7715 9.31055 -96h-1.41016c13.2461 0 24 -10.7539 24 -24v-16zM128.16 359.11c-20 0 -63.6904 -68.8701 -63.6904 -114.561c0 -34.5498 19.2803 -36.9199 31.6904 -40.5498v-12.0303h64v12c12.5898 3.73047 31.6895 6.12988 31.6895 40.5498
c0 12.9609 -4 29.6504 -10.6895 46.5703l-37.5 -38.8896c-1.07617 -1.11035 -2.58398 -1.80078 -4.25098 -1.80078c-1.66602 0 -3.17285 0.69043 -4.24902 1.80078l-14.0898 14.6094c-1.0791 1.15527 -1.73926 2.70898 -1.73926 4.41211s0.660156 3.25391 1.73926 4.4082
l44.6797 46.3398c-15.9004 26.0605 -31 37.1406 -37.5898 37.1406zM168.84 64c-5.64062 31.3154 -8.63184 63.0977 -8.75 96h-64.1797c-0.118164 -32.9023 -3.10938 -64.6846 -8.75 -96h81.6797zM224 -32v20.2197l-32 16v27.7803h-128v-27.7803l-32 -16v-20.2197h192z" />
    <glyph glyph-name="chess-board" unicode="&#xf43c;" horiz-adv-x="512" 
d="M320.07 0v64h64v-64h-64zM192.12 0v64h64v-64h-64zM64.1797 191.9h64v-64h-64v64zM192.12 383.83v-64h-64v64h64zM448 191.9h-64v64h64v-64zM448 383.83v-64h-64v64h64zM448 63.9502h-64v64h64v-64zM320 383.83v-64h-64v64h64zM64.1104 319.83h64v-64h-64v64zM320 191.83
h-64v64h64v-64zM256 255.83h-64v64h64v-64zM192 255.83v-64h-64v64h64zM128 63.9004v-64h-64v64h64zM192 127.9v-64h-64v64h64zM384.05 255.88h-64v64h64v-64zM256.1 191.88v-64h-64v64h64zM256.1 127.88h64v-64h-64v64zM320.1 127.88v64h64v-64h-64zM480 448
c17.6611 0 32 -14.3389 32 -32v-448c0 -17.6611 -14.3389 -32 -32 -32h-448c-17.6611 0 -32 14.3389 -32 32v448c0 17.6611 14.3389 32 32 32h448zM480 -32v448h-448v-448h448z" />
    <glyph glyph-name="chess-clock" unicode="&#xf43d;" horiz-adv-x="640" 
d="M464 32c-61.8145 0 -112 50.1855 -112 112s50.1855 112 112 112s112 -50.1855 112 -112s-50.1855 -112 -112 -112zM464 224c-0.0214844 0 -0.0898438 0.0810547 -0.111328 0.0810547c-44.1143 0 -79.9297 -35.8154 -79.9297 -79.9297s35.8154 -79.9297 79.9297 -79.9297
s79.9297 35.8154 79.9297 79.9297c0 16.2725 -4.87305 31.416 -13.2383 44.0488l-56.5996 -56.6006c-2.17383 -2.18066 -5.18262 -3.53125 -8.50195 -3.53125s-6.3252 1.35059 -8.49805 3.53125l-5.65039 5.65039c-2.18066 2.17285 -3.53125 5.18262 -3.53125 8.50195
c0 3.31836 1.35059 6.3252 3.53125 8.49805l56.5195 56.5303c-12.5508 8.31836 -27.6787 13.2148 -43.8496 13.2197zM176 32c-61.8145 0 -112 50.1855 -112 112s50.1855 112 112 112s112 -50.1855 112 -112s-50.1855 -112 -112 -112zM160 222.37
c-36.4678 -7.44434 -64.0596 -39.7314 -64.0596 -78.3848c0 -44.1533 35.8467 -80 80 -80s80 35.8467 80 80c0 38.6533 -27.4727 70.9404 -63.9404 78.3848v-82.3701c0 -6.62305 -5.37695 -12 -12 -12h-8c-6.62305 0 -12 5.37695 -12 12v82.3701zM608 320
c17.6611 0 32 -14.3389 32 -32v-288c0 -17.6611 -14.3389 -32 -32 -32h-576c-17.6611 0 -32 14.3389 -32 32v288c0 17.6611 14.3389 32 32 32h128v64h-56c-4.41504 0 -8 3.58496 -8 8v16c0 4.41504 3.58496 8 8 8h144c4.41504 0 8 -3.58496 8 -8v-16
c0 -4.41504 -3.58496 -8 -8 -8h-56v-64h200c-4.41504 0 -8 3.58496 -8 8v16c0 4.41504 3.58496 8 8 8h144c4.41504 0 8 -3.58496 8 -8v-16c0 -4.41504 -3.58496 -8 -8 -8h72zM608 0v288h-576v-288h576z" />
    <glyph glyph-name="chess-clock-alt" unicode="&#xf43e;" horiz-adv-x="640" 
d="M464 32c-61.8145 0 -112 50.1855 -112 112s50.1855 112 112 112s112 -50.1855 112 -112s-50.1855 -112 -112 -112zM448 222.37c-36.4678 -7.44434 -64.0596 -39.7314 -64.0596 -78.3848c0 -44.1533 35.8467 -80 80 -80s80 35.8467 80 80
c0 38.6533 -27.4727 70.9404 -63.9404 78.3848v-82.3701c0 -6.62305 -5.37695 -12 -12 -12h-8c-6.62305 0 -12 5.37695 -12 12v82.3701zM608 320c17.6611 0 32 -14.3389 32 -32v-288c0 -17.6611 -14.3389 -32 -32 -32h-576c-17.6611 0 -32 14.3389 -32 32v288
c0 17.6611 14.3389 32 32 32h72c-4.41504 0 -8 3.58496 -8 8v16c0 4.41504 3.58496 8 8 8h144c4.41504 0 8 -3.58496 8 -8v-16c0 -4.41504 -3.58496 -8 -8 -8h200v64h-56c-4.41504 0 -8 3.58496 -8 8v16c0 4.41504 3.58496 8 8 8h144c4.41504 0 8 -3.58496 8 -8v-16
c0 -4.41504 -3.58496 -8 -8 -8h-56v-64h128zM608 0v288h-576v-288h576zM176 32c-61.8145 0 -112 50.1855 -112 112s50.1855 112 112 112s112 -50.1855 112 -112s-50.1855 -112 -112 -112zM176 224c-0.0214844 0 -0.0898438 0.0810547 -0.111328 0.0810547
c-44.1143 0 -79.9297 -35.8154 -79.9297 -79.9297s35.8154 -79.9297 79.9297 -79.9297s79.9297 35.8154 79.9297 79.9297c0 16.2725 -4.87305 31.416 -13.2383 44.0488l-56.5996 -56.6006c-2.17383 -2.18066 -5.18262 -3.53125 -8.50195 -3.53125
s-6.3252 1.35059 -8.49805 3.53125l-5.65039 5.65039c-2.18066 2.17285 -3.53125 5.18262 -3.53125 8.50195c0 3.31836 1.35059 6.3252 3.53125 8.49805l56.5195 56.5303c-12.5508 8.31836 -27.6787 13.2148 -43.8496 13.2197z" />
    <glyph glyph-name="chess-king" unicode="&#xf43f;" 
d="M408 -32c4.41504 0 8 -3.58496 8 -8v-16c0 -4.41504 -3.58496 -8 -8 -8h-368c-4.41504 0 -8 3.58496 -8 8v16c0 4.41504 3.58496 8 8 8h368zM439.34 269.88c5.46777 -7.34082 8.69727 -16.4785 8.69727 -26.3271c0 -4.62402 -0.713867 -9.08301 -2.03711 -13.2725
l-77 -230.28h-33.7998l80.3096 240.12c1.66992 5.5 -1.42969 15.8799 -12 15.8799h-359.05c-0.00878906 0 -0.0146484 -0.000976562 -0.0234375 -0.000976562c-6.85547 0 -12.4199 -5.56445 -12.4199 -12.4199c0 -1.30273 0.200195 -2.55859 0.573242 -3.73926
l80.1602 -239.84h-33.75l-76.8799 230c-1.36523 4.26855 -2.1123 8.82031 -2.1123 13.54c0 24.5352 19.918 44.4551 44.4521 44.46h163.54v64h-56c-4.41504 0 -8 3.58496 -8 8v16c0 4.41504 3.58496 8 8 8h56v56c0 4.41504 3.58496 8 8 8h16c4.41504 0 8 -3.58496 8 -8v-56
h56c4.41504 0 8 -3.58496 8 -8v-16c0 -4.41504 -3.58496 -8 -8 -8h-56v-64h163.51c0.0839844 0 0.139648 0.0400391 0.222656 0.0400391c14.6328 0 27.6064 -7.1582 35.6074 -18.1602z" />
    <glyph glyph-name="chess-king-alt" unicode="&#xf440;" horiz-adv-x="320" 
d="M295.16 12.4199c5.24805 -2.62598 8.83984 -8.0459 8.83984 -14.3096v-46.1104c0 -8.83105 -7.16895 -16 -16 -16h-256c-8.83105 0 -16 7.16895 -16 16v46.1104c0.000976562 6.26562 3.59668 11.6855 8.84961 14.3096l23.1504 11.5801v16c0 13.2461 10.7539 24 24 24
h13.0898c7.05664 32.1455 10.8281 65.2383 10.9102 99.4697v28.5303h-24c-4.41504 0 -8 3.58496 -8 8v16c0 4.41504 3.58496 8 8 8h16.9102l-31.8203 84.75c-1.3125 3.49609 -2.04297 7.29688 -2.04297 11.25c0 17.6611 14.3379 32 32 32h0.0429688h56.9102v32h-24
c-4.41504 0 -8 3.58496 -8 8v16c0 4.41504 3.58496 8 8 8h24v24c0 4.41504 3.58496 8 8 8h16c4.41504 0 8 -3.58496 8 -8v-24h24c4.41504 0 8 -3.58496 8 -8v-16c0 -4.41504 -3.58496 -8 -8 -8h-24v-32h56.9102c0.0107422 0 0.00976562 -0.0136719 0.0205078 -0.0136719
c17.6611 0 32 -14.3389 32 -32c0 -3.94238 -0.714844 -7.71777 -2.02051 -11.2061l-31.8105 -84.7803h16.9004c4.41504 0 8 -3.58496 8 -8v-16c0 -4.41504 -3.58496 -8 -8 -8h-24v-28.5303c0.0820312 -34.2314 3.85352 -67.3242 10.9102 -99.4697h13.0898
c13.2461 0 24 -10.7539 24 -24v-16zM87.0898 320l36 -96h73.8506l36 96h-145.851zM128 163.47c-0.0410156 -34.1836 -3.52051 -67.207 -10.0996 -99.4697h84.1992c-6.5791 32.2627 -10.0586 65.2861 -10.0996 99.4697v28.5303h-64v-28.5303zM272 -32v20.2197l-32 16v27.7803
h-160v-27.7803l-32 -16v-20.2197h224z" />
    <glyph glyph-name="chess-knight" unicode="&#xf441;" horiz-adv-x="384" 
d="M35.4805 146.36c-20.9014 9.30371 -35.4473 30.2197 -35.4805 54.5498v119c0 0.0429688 0.0332031 0.139648 0.0332031 0.182617c0 9.95996 2.77637 19.2764 7.59668 27.2168l-2.68945 5.39062c-3.13574 6.28125 -4.93164 13.4092 -4.94043 20.8994
c0.0273438 23.3887 19.0117 42.373 42.4004 42.4004h85.5996c123.51 0 224 -100.49 224 -224v-192h-32v192c0 106 -86 192 -192 192h-85.5996c-7.2207 0 -13.5205 -7.66992 -8.85059 -17l12.3105 -24.5596c-7.41992 -7.43066 -13.8604 -12.0908 -13.8604 -22.4902v-119
c0.000976562 -11.3105 6.7627 -21.0342 16.4805 -25.3506l35.1992 -15.6191c3.43652 -1.53125 7.2793 -2.38477 11.2812 -2.38477c3.63184 0 7.10059 0.700195 10.2793 1.97461l11.0801 4.42969c7.78809 3.11035 13.8213 9.64062 16.2695 17.7402l8 26.5693
c1.48438 5.94434 5.50684 10.876 10.8701 13.5605l16.1602 9.58984v-62.25c-0.00488281 -16.29 -9.34863 -30.3809 -23 -37.21l-42.3105 -24.8203c-22.7412 -11.3818 -38.3037 -34.8594 -38.3096 -62v-45.1797h-32v45.1797
c0 0.12207 -0.0996094 0.177734 -0.0996094 0.299805c0 34.5469 17.4307 65.0547 43.9697 83.2002c-3.60059 1.20996 -2.38965 0.780273 -40.3896 17.6807zM64 284c0 11.0381 8.96191 20 20 20s20 -8.96191 20 -20s-8.96191 -20 -20 -20s-20 8.96191 -20 20zM376 -32
c4.41504 0 8 -3.58496 8 -8v-16c0 -4.41504 -3.58496 -8 -8 -8h-368c-4.41504 0 -8 3.58496 -8 8v16c0 4.41504 3.58496 8 8 8h368z" />
    <glyph glyph-name="chess-knight-alt" unicode="&#xf442;" horiz-adv-x="320" 
d="M91.7305 277.33c0 -0.00683594 -0.000976562 -0.0136719 -0.000976562 -0.0205078c0 -8.21484 -6.65918 -14.8877 -14.8691 -14.9092c-8.20703 0 -14.8701 6.66113 -14.8701 14.8682s6.66309 14.8701 14.8701 14.8701c8.18652 0 14.8369 -6.62988 14.8701 -14.8086z
M311.16 12.4199c5.24805 -2.62598 8.83984 -8.0459 8.83984 -14.3096v-46.1104c0 -8.83105 -7.16895 -16 -16 -16h-288c-8.83105 0 -16 7.16895 -16 16v46.1104c0.000976562 6.26562 3.59668 11.6855 8.84961 14.3096l23.1504 11.5801v16
c0.0234375 6.85254 2.93945 13.0283 7.59961 17.3604c-16.9795 46.8594 -1.86914 79.3193 18.6904 101.42l-26.6797 11.9102c-18.6357 8.33105 -31.5947 27.0049 -31.6104 48.7197v83.3701c0 0.0234375 0.0273438 0.0917969 0.0273438 0.115234
c0 7.55566 1.75195 14.7061 4.87305 21.0645l-0.360352 0.740234c-2.88086 5.80566 -4.53027 12.3867 -4.54004 19.2998c0 22.0762 17.9238 40 40 40h86.1201c89.2598 0 161.88 -72.6201 161.88 -161.88v-112.86c0 -0.0585938 0.00976562 -0.123047 0.00976562 -0.181641
c0 -17.6113 -7.17578 -33.5596 -18.7598 -45.0781l-0.879883 -0.879883c11.0898 -2.12012 19.6299 -11.4102 19.6299 -23.1201v-16zM44.6504 199.91l26.8994 -12c2.62695 -1.17578 5.56641 -1.83105 8.62695 -1.83105c2.7832 0 5.44043 0.540039 7.87305 1.52051
l8.48047 3.40039c5.98047 2.39355 10.6084 7.4209 12.4697 13.6504l6.08984 20.3496c1.11426 4.58496 4.19727 8.39551 8.32031 10.4697l21.2598 5.06055v-42.7305c0 -38.3301 -108.939 -47.1699 -73.6201 -133.8h152.95l22.6299 22.6299
c5.79102 5.79199 9.37012 13.8008 9.37012 22.6299v112.86c0 71.4297 -58.4502 129.88 -129.84 129.88h-86.1602c-4.41504 0 -8 -3.58496 -8 -8c0.00683594 -1.79102 0.439453 -3.49707 1.19043 -5l9.46973 -18.9297l-6 -6
c-2.88086 -2.89453 -4.66016 -6.88574 -4.66016 -11.2881v-0.00195312v-83.3701c0.000976562 -8.69238 5.18945 -16.168 12.6504 -19.5zM288 -32v20.2197l-14.3096 7.16016l-17.6904 8.83984v27.7803h-192v-27.7803l-17.6904 -8.83984l-14.3096 -7.16016v-20.2197h256z" />
    <glyph glyph-name="chess-pawn" unicode="&#xf443;" horiz-adv-x="320" 
d="M312 -32c4.41504 0 8 -3.58496 8 -8v-16c0 -4.41504 -3.58496 -8 -8 -8h-304c-4.41504 0 -8 3.58496 -8 8v16c0 4.41504 3.58496 8 8 8h304zM56 192c-4.41504 0 -8 3.58496 -8 8v16c0 4.41504 3.58496 8 8 8h25.7803c-20.8506 20.3457 -33.7578 48.748 -33.7578 80.1514
c0 61.8145 50.1855 112 112 112s112 -50.1855 112 -112c0 -31.4033 -12.9521 -59.8057 -33.8027 -80.1514h25.7803c4.41504 0 8 -3.58496 8 -8v-16c0 -4.41504 -3.58496 -8 -8 -8h-40v-32c0 -73.6201 11.4004 -128.34 33 -160h-36.7998
c-18.6602 37.54 -28.2002 91 -28.2002 160v32h-64v-32c0 -69 -9.54004 -122.46 -28.2002 -160h-36.7998c21.6396 31.6602 33 86.3799 33 160v32h-40zM80 304c0.0498047 -44.1299 35.8701 -79.9502 80 -80c44.1533 0 80 35.8467 80 80s-35.8467 80 -80 80
s-80 -35.8467 -80 -80z" />
    <glyph glyph-name="chess-pawn-alt" unicode="&#xf444;" horiz-adv-x="256" 
d="M247.16 12.4199c5.24805 -2.62598 8.83984 -8.0459 8.83984 -14.3096v-46.1104c0 -8.83105 -7.16895 -16 -16 -16h-224c-8.83105 0 -16 7.16895 -16 16v46.1104c0.000976562 6.26562 3.59668 11.6855 8.84961 14.3096l23.1504 11.5801v16c0 13.2461 10.7539 24 24 24
h-1.41016c5.99707 31.2285 9.19043 63.0605 9.31055 96h-23.9004c-4.41504 0 -8 3.58496 -8 8v16c0 4.41504 3.58496 8 8 8h16.9102c-15.4131 16.8867 -24.8467 39.3721 -24.9102 64c0 0.0517578 -0.0117188 0.0595703 -0.0117188 0.111328
c0 52.9072 42.9531 95.8604 95.8594 95.8604c52.9072 0 95.8604 -42.9531 95.8604 -95.8604c0 -24.6406 -9.31738 -47.1221 -24.6182 -64.1113h16.9102c4.41504 0 8 -3.58496 8 -8v-16c0 -4.41504 -3.58496 -8 -8 -8h-23.9004
c0.120117 -32.9395 3.31348 -64.7715 9.31055 -96h-1.41016c13.2461 0 24 -10.7539 24 -24v-16zM160.09 160h-64.1797c-0.118164 -32.9023 -3.10938 -64.6846 -8.75 -96h81.6797c-5.64062 31.3154 -8.63184 63.0977 -8.75 96zM128 320
c-35.3047 -0.0380859 -63.9619 -28.6953 -64 -64c0 -35.3223 28.6777 -64 64 -64s64 28.6777 64 64s-28.6777 64 -64 64zM224 -32v20.2197l-32 16v27.7803h-128v-27.7803l-32 -16v-20.2197h192z" />
    <glyph glyph-name="chess-queen" unicode="&#xf445;" horiz-adv-x="512" 
d="M256 336c-30.9072 0 -56 25.0928 -56 56s25.0928 56 56 56s56 -25.0928 56 -56s-25.0928 -56 -56 -56zM256 416c-13.2461 0 -24 -10.7539 -24 -24s10.7539 -24 24 -24s24 10.7539 24 24s-10.7539 24 -24 24zM440 -32c4.41504 0 8 -3.58496 8 -8v-16
c0 -4.41504 -3.58496 -8 -8 -8h-368c-4.41504 0 -8 3.58496 -8 8v16c0 4.41504 3.58496 8 8 8h368zM504.87 263.84c4.30566 -2.86816 7.11914 -7.77344 7.11914 -13.3311c0 -2.56445 -0.604492 -4.98926 -1.67969 -7.13867l-115.76 -243.37h-35.4395l115.96 243.82
l-4.07031 2.26953c-14.1777 -13.6768 -33.4756 -22.0908 -54.7109 -22.0908c-0.0966797 0 -0.192383 0.000976562 -0.289062 0.000976562c-5.14551 0.00585938 -10.1143 0.482422 -15 1.38965c-31.6797 5.87012 -56.0498 30.9502 -63 62.6104h-8.67969
c-12.3418 -28.2754 -40.4805 -48.0576 -73.2812 -48.0576s-61.0176 19.7822 -73.3594 48.0576h-8.72949c-7.78027 -34.71 -36.8301 -61.4004 -72.46 -63.8096c-1.83984 -0.130859 -3.68066 -0.19043 -5.49023 -0.19043
c-0.0976562 0 -0.208008 -0.00390625 -0.305664 -0.00390625c-21.2344 0 -40.5186 8.41699 -54.6943 22.0938l-4.12012 -2.26953l116 -243.82h-35.4297l-115.76 243.33c-1.0752 2.14941 -1.70508 4.58008 -1.70508 7.14453c0 5.55762 2.83887 10.457 7.14453 13.3252
l28.5703 16c2.41699 1.62988 5.34277 2.58984 8.47461 2.58984h0.00488281c5.60352 -0.104492 10.5508 -2.88379 13.6104 -7.12988c8.64844 -11.7051 22.5215 -19.2598 38.1777 -19.2598h0.0322266c1.09961 0 2.20996 0.0400391 3.33008 0.110352
c25.6699 1.73926 44.6699 24.7998 44.6699 50.4893c0 7.39648 6.00391 13.4004 13.4004 13.4004h38.7695c6.04004 0 11.6104 -3.99023 12.8604 -9.91016c4.57715 -21.7363 23.8789 -38.0752 46.9688 -38.0752s42.3936 16.3389 46.9707 38.0752
c1.25 5.91016 6.86035 9.91016 12.8604 9.91016h38.7695c7.39648 0 13.4004 -6.00391 13.4004 -13.4004c0 -23.5293 15.7002 -45.46 38.8398 -49.75c2.98438 -0.552734 6.01855 -0.84375 9.16016 -0.849609c0.00683594 0 -0.00976562 -0.0400391 -0.00292969 -0.0400391
c15.5781 0 29.4131 7.51758 38.0732 19.1201c3.12109 4.31152 8.14648 7.1377 13.8398 7.26953c3.12305 0 6.04102 -0.960938 8.4502 -2.58984z" />
    <glyph glyph-name="chess-queen-alt" unicode="&#xf446;" horiz-adv-x="256" 
d="M128 400c-13.2461 0 -24 10.7539 -24 24s10.7539 24 24 24s24 -10.7539 24 -24s-10.7539 -24 -24 -24zM247.16 12.4199c5.24805 -2.62598 8.83984 -8.0459 8.83984 -14.3096v-46.1104c0 -8.83105 -7.16895 -16 -16 -16h-224c-8.83105 0 -16 7.16895 -16 16v46.1104
c0.000976562 6.26562 3.59668 11.6855 8.84961 14.3096l23.1504 11.5801v16c0.09375 12.0791 9.25977 22.0254 21 23.3799c7.12891 32.3379 10.9326 65.6387 11 100.09v28.5303h-24c-4.41504 0 -8 3.58496 -8 8v16c0 4.41504 3.58496 8 8 8h22.3896l-50.9199 124.23
c-0.50293 1.00391 -0.798828 2.13965 -0.798828 3.33887c0 2.58984 1.32324 4.87305 3.3291 6.21094l11.1504 7.46973c1.13379 0.761719 2.50488 1.20996 3.97266 1.20996h0.0273438c2.61523 -0.0478516 4.92383 -1.34668 6.34961 -3.33008
c4.03906 -5.46973 10.5195 -9 17.834 -9h0.00585938c0.549805 0 1.03027 0.0498047 1.5498 0.0498047c11.96 0.810547 20.8506 11.5605 20.8506 23.5605c0 3.45508 2.80469 6.25977 6.25977 6.25977h18.0703
c0.0537109 0.000976562 0.105469 -0.000976562 0.160156 -0.000976562c2.83594 0 5.21484 -1.97266 5.83984 -4.61914c2.13477 -10.1504 11.1475 -17.7803 21.9297 -17.7803c10.7812 0 19.7949 7.62988 21.9297 17.7803c0.625 2.64648 3.00098 4.62207 5.83691 4.62207
c0.0546875 0 0.109375 -0.000976562 0.163086 -0.00195312h18.0703h0.00976562c3.45508 0 6.25977 -2.80469 6.25977 -6.25977c0 -10.9805 7.33008 -21.21 18.1309 -23.21c1.38965 -0.260742 2.80469 -0.398438 4.26953 -0.400391
c0.00390625 0 -0.00390625 -0.0185547 -0.000976562 -0.0185547c7.27246 0 13.7334 3.50586 17.7812 8.91895c1.4502 2.01562 3.79395 3.33789 6.4502 3.39941c1.45605 -0.00195312 2.81641 -0.450195 3.93945 -1.20996l11.1602 -7.43945
c2.01074 -1.33691 3.32422 -3.62598 3.32422 -6.21875c0 -1.19727 -0.282227 -2.3291 -0.78418 -3.33105l-50.9297 -124.23h22.3896c4.41504 0 8 -3.58496 8 -8v-16c0 -4.41504 -3.58496 -8 -8 -8h-24v-28.5303c0.0839844 -34.4502 3.90527 -67.7549 11.0498 -100.09
c11.7188 -1.37695 20.8594 -11.3154 20.9502 -23.3799v-16zM56.7002 322.23l40.2998 -98.2305h62l40.2998 98.1602c-2.27246 0.142578 -4.50879 0.421875 -6.7002 0.830078c-12.3838 2.31543 -23.2969 8.88477 -31.0801 18.1699
c-9.21582 -7.26855 -20.9277 -11.6084 -33.5645 -11.6084c-12.6787 0 -24.3447 4.36719 -33.5752 11.6787c-9.0918 -10.8096 -22.3975 -17.957 -37.3496 -19h-0.330078zM170.1 64c-6.5791 32.2627 -10.0586 65.2861 -10.0996 99.4697v28.5303h-64v-28.5303
c-0.0410156 -34.1836 -3.52051 -67.207 -10.0996 -99.4697h84.1992zM224 -32v20.2197l-32 16v27.7803h-128v-27.7803l-32 -16v-20.2197h192z" />
    <glyph glyph-name="chess-rook" unicode="&#xf447;" horiz-adv-x="384" 
d="M376 -32c4.41504 0 8 -3.58496 8 -8v-16c0 -4.41504 -3.58496 -8 -8 -8h-368c-4.41504 0 -8 3.58496 -8 8v16c0 4.41504 3.58496 8 8 8h368zM352 416c17.6611 0 32 -14.3389 32 -32v-167.34l-56 -48c0 -42.71 -1.57031 -93.4297 10.6504 -168.66h-32.4707
c-11.5898 74.3398 -10.1797 120.71 -10.1797 183.34l56 48v152.66h-80v-64h-32v64h-95.9102v-64h-32l-0.0898438 64h-80v-152.66l56 -48c0 -61.9297 1.44043 -108.82 -10.1797 -183.34h-32.4707c12.2207 75.2695 10.6504 126 10.6504 168.66l-56 48v167.34
c0 17.6611 14.3389 32 32 32h320zM192 256c26.4795 -0.0273438 47.9727 -21.5205 48 -48v-80h-96v80c0.0273438 26.4795 21.5205 47.9727 48 48zM208 160v48c0 8.83105 -7.16895 16 -16 16s-16 -7.16895 -16 -16v-48h32z" />
    <glyph glyph-name="chess-rook-alt" unicode="&#xf448;" horiz-adv-x="320" 
d="M311.16 20.4199c5.24805 -2.62598 8.83984 -8.0459 8.83984 -14.3096v-54.1104c0 -8.83105 -7.16895 -16 -16 -16h-288c-8.83105 0 -16 7.16895 -16 16v54.1104c0.000976562 6.26562 3.59668 11.6855 8.84961 14.3096l23.1504 11.5801v16c0 8.83105 7.16895 16 16 16
h0.389648l7.27051 145.32l-30.3906 30.6797c-5.72168 5.77441 -9.25781 13.7197 -9.26953 22.4805v97.5195c0.0380859 13.2285 10.7715 23.9619 24 24h240c13.2285 -0.0380859 23.9619 -10.7715 24 -24v-97.4199c-0.000976562 -8.76074 -3.52734 -16.71 -9.24023 -22.4902
l-30.4199 -30.7803l7.27051 -145.31h0.389648c8.83105 0 16 -7.16895 16 -16v-16zM48 262.5l40.3398 -40.7197l-7.92969 -157.78h159.18l-7.92969 157.81l40.3398 40.75v89.4404h-48v-48h-32v48h-64v-48h-32v48h-48v-89.5zM288 -32v28.2197l-14.3096 7.16016
l-17.6904 8.83984v19.7803h-192v-19.7803l-17.6904 -8.83984l-14.3096 -7.16016v-28.2197h256zM183.59 216.41v-47.1797h-47.1797v47.1797c0 13.0195 10.5703 23.5898 23.5898 23.5898s23.5898 -10.5703 23.5898 -23.5898z" />
    <glyph glyph-name="user-lock" unicode="&#xf502;" horiz-adv-x="640" 
d="M48 -32h273.6c2.47363 -11.8232 7.64844 -22.7881 14.8008 -32h-288.4c-26.4922 0 -48 21.5078 -48 48v41.5996c0 74.2002 60.2002 134.4 134.3 134.4c28.7998 0 42.5 -16 89.6006 -16c47.0996 0 60.8994 16 89.5996 16
c7.21191 -0.136719 14.2129 -0.850586 21.0996 -2.09961c-6.35059 -8.99219 -10.9258 -19.4971 -13.0996 -30.7002c-2.59961 0.200195 -5.2002 0.799805 -7.90039 0.799805c-19.5996 0 -39.0996 -16 -89.5996 -16s-70 16 -89.5996 16
c-56.499 -0.0390625 -102.361 -45.9014 -102.4 -102.4v-41.5996c0 -8.83105 7.16895 -16 16 -16zM224 192c-70.6455 0 -128 57.3545 -128 128s57.3545 128 128 128s128 -57.3545 128 -128s-57.3545 -128 -128 -128zM224 416c-52.9453 -0.0830078 -95.917 -43.0547 -96 -96
c0 -52.9834 43.0166 -96 96 -96s96 43.0166 96 96s-43.0166 96 -96 96zM496 80c17.6611 0 32 -14.3389 32 -32s-14.3389 -32 -32 -32s-32 14.3389 -32 32s14.3389 32 32 32zM592 160c26.4922 0 48 -21.5078 48 -48v-128c0 -26.4922 -21.5078 -48 -48 -48h-192
c-26.4922 0 -48 21.5078 -48 48v128c0 26.4922 21.5078 48 48 48h16v48c0 44.1533 35.8467 80 80 80s80 -35.8467 80 -80v-48h16zM448 208v-48h96v48c0 26.4922 -21.5078 48 -48 48s-48 -21.5078 -48 -48zM608 -16v128c0 8.83105 -7.16895 16 -16 16h-192
c-8.83105 0 -16 -7.16895 -16 -16v-128c0 -8.83105 7.16895 -16 16 -16h192c8.83105 0 16 7.16895 16 16z" />
    <glyph glyph-name="mind-share" unicode="&#xf677;" horiz-adv-x="640" 
d="M288.1 175.4c-12.0996 -9.10059 -23.0996 -19.7002 -32.0996 -31.8008v228.4c0 24.2998 -19.9004 44 -44.2002 44c-30.7998 0 -39.8994 -22.5996 -45.7998 -45.5l-12.7002 0.299805h-0.399414c-25.9004 0 -45.5 -19.7002 -45.5 -43.7998
c0 -6.2002 1.69922 -11.9004 4.19922 -22.7998c-27.5 -11.2002 -49.3994 -25.7998 -49.3994 -59.7002c0 -10 0.200195 -13.5 12.7998 -39.2002c-19.9004 -11.3994 -42.9004 -24.3994 -42.9004 -58.2998c0 -35.2998 23.4004 -49 49 -59.4004
c-2.7998 -13.8994 -3.69922 -16.7998 -3.69922 -23c0 -28.3994 23.1992 -51.5 51.6992 -51.5c3.90039 0 5.90039 0.5 22.2002 3.2002c8.90039 -26.3994 21.2002 -48.2002 53.1006 -48.2002c13.1992 0 25.1992 5.10059 34.2998 13.3008
c4.39941 -9.7002 9.89941 -18.9004 16.2002 -27.6006c-14.1006 -10.8994 -31.5 -17.7002 -50.6006 -17.7002c-31.5 0 -59.8994 17.6006 -74.0996 45c-48.2002 -1.2998 -87.2002 39.2002 -84.9004 87.4004c-27.8994 16.0996 -45.2998 45.7998 -45.2998 78.5
c0 27.5996 12.9004 53.5996 34.2998 70.7002c-17.5 54.3994 20.1006 93.0996 41.1006 105.3c-2.60059 37.7002 25.8994 74.2998 66.6992 79.4004c12 27.3994 39.1006 45.5996 69.7002 45.5996c24.6006 0 46.2002 -11.9004 60.2002 -29.9004
c14 18 35.5996 29.9004 60.2002 29.9004c30.5996 0 57.7998 -18.2002 69.7998 -45.5996c40.7998 -5.10059 69.4004 -41.7002 66.7002 -79.4004c13.2998 -7.59961 33 -25.9004 41.5 -52c-3.7998 -0.0996094 -7.60059 -0.5 -11.2998 -1.2998
c-3.80078 -0.799805 -7.5 -1.90039 -11.1006 -3.40039c-3.09961 -1.2998 -5.5 -3.2998 -8.2998 -5c-6.2002 22.2002 -24.5996 33.7998 -47 42.9004c2.5 10.8994 4.2002 16.5996 4.2002 22.7998c0 24.0996 -19.6006 43.7998 -45.5 43.7998h-0.400391l-12.7002 -0.299805
c-5.89941 23 -15.0996 45.5 -45.7998 45.5c-24.3994 0 -44.2002 -19.7002 -44.2002 -44v-196.6zM630.3 134.8c6.2998 -6.2998 9.7002 -14.7998 9.7002 -23.7002c0 -8.89941 -3.5 -17.2998 -9.7002 -23.5l-96 -95.1992c-9.2002 -9.2002 -22.3994 -11.8008 -34.2998 -6.80078
c-12.0996 5.10059 -19.9004 17 -19.9004 30.4004v31.2002h-80c-17.2998 0 -29.5996 -5.5 -37.6992 -16.7002c-12.3008 -17.2998 -11.7002 -44.0996 -7.40039 -56.9004c6.2998 -18.6992 -7.59961 -37.5996 -26.2998 -37.5996c-5.40039 0 -10.7998 1.59961 -15.6006 4.7998
c-42 27.9004 -63.5996 78.5 -55.1992 128.8c0.0996094 0.200195 0.199219 0.5 0.199219 0.700195c9.2002 53.2998 52.9004 96 106.7 103.9c6.10059 1 12 1.09961 18.1006 1h97.1992v31.2002c0 13.3994 7.80078 25.2998 19.9004 30.3994
c11.9004 4.90039 25.0996 2.40039 34.2998 -6.7998zM512 16l95.7998 96l-96 95.2002l0.299805 -64.1006h-128c-6 0 -10.2998 0.100586 -14.6992 -0.599609c-40.4004 -5.90039 -73.3008 -38 -80 -78.2002c-5.7002 -34.0996 6.89941 -68.2998 32.3994 -90.0996
c-3.7998 20.5996 -2.5 51.2998 14.5 75c9.90039 13.7002 28.9004 30 63.7002 30h112v-63.2002z" />
    <glyph glyph-name="alarm-exclamation" unicode="&#xf843;" horiz-adv-x="512" 
d="M256 96c13.2461 0 24 -10.7539 24 -24s-10.7539 -24 -24 -24s-24 10.7539 -24 24s10.7539 24 24 24zM247.5 120c-0.00488281 0 -0.0107422 0.00683594 -0.015625 0.00683594c-4.24512 0 -7.72266 3.31348 -7.98438 7.49316l-7 136
c-0.0107422 0.167969 -0.015625 0.330078 -0.015625 0.5c0 4.41504 3.58398 8 8 8h0.015625h31c0.00488281 0 0.0107422 0.00683594 0.015625 0.00683594c4.41504 0 8 -3.58496 8 -8c0 -0.169922 -0.00488281 -0.338867 -0.015625 -0.506836l-7 -136
c-0.327148 -4.15234 -3.77832 -7.44043 -8 -7.5h-17zM32 336c0.102539 -13.2471 3.52539 -25.8164 9.40039 -36.75c-6.50293 -10.0684 -12.3398 -20.6689 -17.4004 -31.6396c-14.8301 18.9795 -24 42.5293 -24 68.3896c0.0771484 61.7783 50.2217 111.923 112 112
c33.8604 0 63.8896 -15.4199 84.4404 -39.2002c-11.7246 -2.77637 -23.4082 -6.4541 -34.4404 -10.7998c-13.6064 11.1738 -31.0527 17.9326 -50 18c-44.1299 -0.0498047 -79.9502 -35.8701 -80 -80zM400 448c61.7783 -0.0771484 111.923 -50.2217 112 -112
c0 -25.8604 -9.20996 -49.3896 -24 -68.3896c-5.0498 10.9521 -10.874 21.5361 -17.3604 31.5898c5.86133 10.9365 9.27051 23.5039 9.36035 36.75c-0.0498047 44.1299 -35.8701 79.9502 -80 80c-18.9473 -0.0673828 -36.3936 -6.82617 -50 -18
c-11.0322 4.34473 -22.7158 8.02344 -34.4404 10.7998c20.5508 23.8301 50.5801 39.25 84.4404 39.25zM256 384c123.71 0 224 -100.29 224 -224c0 -0.0283203 -0.0449219 -0.167969 -0.0449219 -0.196289c0 -55.9854 -20.6855 -107.178 -54.8252 -146.344l52.5 -52.4902
c1.4502 -1.44824 2.34766 -3.45117 2.34766 -5.66113c0 -2.20898 -0.897461 -4.20996 -2.34766 -5.6582l-11.3096 -11.3105c-1.44824 -1.4502 -3.45215 -2.34766 -5.66113 -2.34766c-2.20996 0 -4.21094 0.897461 -5.65918 2.34766l-52.46 52.5303
c-39.2061 -34.123 -90.6475 -54.7939 -146.653 -54.7939c-56.0049 0 -107.221 20.6709 -146.427 54.7939l-52.4902 -52.5c-1.44824 -1.4502 -3.45117 -2.34766 -5.66113 -2.34766c-2.20898 0 -4.20996 0.897461 -5.6582 2.34766l-11.3105 11.3096
c-1.4502 1.44824 -2.34766 3.45215 -2.34766 5.66113c0 2.20996 0.897461 4.21094 2.34766 5.65918l52.5 52.46c-34.1211 39.1611 -54.8398 90.4502 -54.8398 146.419v0.121094c0 123.71 100.29 224 224 224zM256 -32c105.87 0 192 86.1299 192 192s-86.1299 192 -192 192
s-192 -86.1299 -192 -192s86.1299 -192 192 -192z" />
    <glyph glyph-name="alarm-plus" unicode="&#xf844;" horiz-adv-x="512" 
d="M344 176c4.41504 0 8 -3.58496 8 -8v-16c0 -4.41504 -3.58496 -8 -8 -8h-72v-72c0 -4.41504 -3.58496 -8 -8 -8h-16c-4.41504 0 -8 3.58496 -8 8v72h-72c-4.41504 0 -8 3.58496 -8 8v16c0 4.41504 3.58496 8 8 8h72v72c0 4.41504 3.58496 8 8 8h16
c4.41504 0 8 -3.58496 8 -8v-72h72zM32 336c0.102539 -13.2471 3.52539 -25.8164 9.40039 -36.75c-6.50293 -10.0684 -12.3398 -20.6689 -17.4004 -31.6396c-14.8301 18.9795 -24 42.5293 -24 68.3896c0.0771484 61.7783 50.2217 111.923 112 112
c33.8604 0 63.8896 -15.4199 84.4404 -39.2002c-11.7246 -2.77637 -23.4082 -6.4541 -34.4404 -10.7998c-13.6064 11.1738 -31.0527 17.9326 -50 18c-44.1299 -0.0498047 -79.9502 -35.8701 -80 -80zM400 448c61.7783 -0.0771484 111.923 -50.2217 112 -112
c0 -25.8604 -9.20996 -49.3896 -24 -68.3896c-5.0498 10.9521 -10.874 21.5361 -17.3604 31.5898c5.86133 10.9365 9.27051 23.5039 9.36035 36.75c-0.0498047 44.1299 -35.8701 79.9502 -80 80c-18.9473 -0.0673828 -36.3936 -6.82617 -50 -18
c-11.0322 4.34473 -22.7158 8.02344 -34.4404 10.7998c20.5508 23.8301 50.5801 39.25 84.4404 39.25zM256 384c123.71 0 224 -100.29 224 -224c0 -0.0283203 -0.0449219 -0.167969 -0.0449219 -0.196289c0 -55.9854 -20.6855 -107.178 -54.8252 -146.344l52.5 -52.4902
c1.4502 -1.44824 2.34766 -3.45117 2.34766 -5.66113c0 -2.20898 -0.897461 -4.20996 -2.34766 -5.6582l-11.3096 -11.3105c-1.44824 -1.4502 -3.45215 -2.34766 -5.66113 -2.34766c-2.20996 0 -4.21094 0.897461 -5.65918 2.34766l-52.46 52.5303
c-39.2061 -34.123 -90.6475 -54.7939 -146.653 -54.7939c-56.0049 0 -107.221 20.6709 -146.427 54.7939l-52.4902 -52.5c-1.44824 -1.4502 -3.45117 -2.34766 -5.66113 -2.34766c-2.20898 0 -4.20996 0.897461 -5.6582 2.34766l-11.3105 11.3096
c-1.4502 1.44824 -2.34766 3.45215 -2.34766 5.66113c0 2.20996 0.897461 4.21094 2.34766 5.65918l52.5 52.46c-34.1211 39.1611 -54.8398 90.4502 -54.8398 146.419v0.121094c0 123.71 100.29 224 224 224zM256 -32c105.87 0 192 86.1299 192 192s-86.1299 192 -192 192
s-192 -86.1299 -192 -192s86.1299 -192 192 -192z" />
    <glyph glyph-name="alarm-snooze" unicode="&#xf845;" horiz-adv-x="512" 
d="M328 96c4.41504 0 8 -3.58496 8 -8v-16c0 -4.41504 -3.58496 -8 -8 -8h-136c-0.00292969 0 -0.000976562 0.0117188 -0.00390625 0.0117188c-8.83105 0 -16 7.16895 -16 16c0 3.77637 1.31152 7.25 3.50391 9.98828l107.22 134h-102.72c-4.41504 0 -8 3.58496 -8 8v16
c0 4.41504 3.58496 8 8 8h136c0.00292969 0 0.000976562 -0.0117188 0.00390625 -0.0117188c8.83105 0 16 -7.16895 16 -16c0 -3.77637 -1.31152 -7.25 -3.50391 -9.98828l-107.22 -134h102.72zM32 336c0.102539 -13.2471 3.52539 -25.8164 9.40039 -36.75
c-6.50293 -10.0684 -12.3398 -20.6689 -17.4004 -31.6396c-14.8301 18.9795 -24 42.5293 -24 68.3896c0.0771484 61.7783 50.2217 111.923 112 112c33.8604 0 63.8896 -15.4199 84.4404 -39.2002c-11.7246 -2.77637 -23.4082 -6.4541 -34.4404 -10.7998
c-13.6064 11.1738 -31.0527 17.9326 -50 18c-44.1299 -0.0498047 -79.9502 -35.8701 -80 -80zM400 448c61.7783 -0.0771484 111.923 -50.2217 112 -112c0 -25.8604 -9.20996 -49.3896 -24 -68.3896c-5.0498 10.9521 -10.874 21.5361 -17.3604 31.5898
c5.86133 10.9365 9.27051 23.5039 9.36035 36.75c-0.0498047 44.1299 -35.8701 79.9502 -80 80c-18.9473 -0.0673828 -36.3936 -6.82617 -50 -18c-11.0322 4.34473 -22.7158 8.02344 -34.4404 10.7998c20.5508 23.8301 50.5801 39.25 84.4404 39.25zM256 384
c123.71 0 224 -100.29 224 -224c0 -0.0283203 -0.0449219 -0.167969 -0.0449219 -0.196289c0 -55.9854 -20.6855 -107.178 -54.8252 -146.344l52.5 -52.4902c1.4502 -1.44824 2.34766 -3.45117 2.34766 -5.66113c0 -2.20898 -0.897461 -4.20996 -2.34766 -5.6582
l-11.3096 -11.3105c-1.44824 -1.4502 -3.45215 -2.34766 -5.66113 -2.34766c-2.20996 0 -4.21094 0.897461 -5.65918 2.34766l-52.46 52.5303c-39.2061 -34.123 -90.6475 -54.7939 -146.653 -54.7939c-56.0049 0 -107.221 20.6709 -146.427 54.7939l-52.4902 -52.5
c-1.44824 -1.4502 -3.45117 -2.34766 -5.66113 -2.34766c-2.20898 0 -4.20996 0.897461 -5.6582 2.34766l-11.3105 11.3096c-1.4502 1.44824 -2.34766 3.45215 -2.34766 5.66113c0 2.20996 0.897461 4.21094 2.34766 5.65918l52.5 52.46
c-34.1211 39.1611 -54.8398 90.4502 -54.8398 146.419v0.121094c0 123.71 100.29 224 224 224zM256 -32c105.87 0 192 86.1299 192 192s-86.1299 192 -192 192s-192 -86.1299 -192 -192s86.1299 -192 192 -192z" />
    <glyph glyph-name="align-slash" unicode="&#xf846;" horiz-adv-x="640" 
d="M536 144c4.41504 0 8 -3.58496 8 -8v-16c0 -4.41504 -3.58496 -8 -8 -8h-36.9297l-40.6406 32h77.5703zM544 264v-16c0 -4.41504 -3.58496 -8 -8 -8h-199.48l-40.6299 32h240.11c4.41504 0 8 -3.58496 8 -8zM536 368h-362l-40.6602 32h402.66c4.41504 0 8 -3.58496 8 -8
v-16c0 -4.41504 -3.58496 -8 -8 -8zM96 120v16c0 4.41504 3.58496 8 8 8h199.36l40.6396 -32h-240c-4.41504 0 -8 3.58496 -8 8zM637 -37.3203c1.8291 -1.43359 2.99707 -3.66504 2.99707 -6.16699c0 -1.90625 -0.682617 -3.6543 -1.81738 -5.0127l-10 -12.5
c-1.44922 -1.82812 -3.69141 -2.99316 -6.20312 -2.99316c-1.88477 0 -3.61719 0.661133 -4.97656 1.7627l-614 483.521c-1.82715 1.45117 -2.99121 3.69434 -2.99121 6.20703c0 1.89648 0.667969 3.63867 1.78125 5.00293l10 12.5
c1.43945 1.83789 3.67969 3.01074 6.19238 3.01074c1.90723 0 3.65625 -0.679688 5.01758 -1.81055zM104 16h361.91l40.6396 -32h-402.55c-4.41504 0 -8 3.58496 -8 8v16c0 4.41504 3.58496 8 8 8zM104 240c-4.41504 0 -8 3.58496 -8 8v16c0 4.41504 3.58496 8 8 8h36.8096
l40.6406 -32h-77.4502z" />
    <glyph glyph-name="bags-shopping" unicode="&#xf847;" horiz-adv-x="576" 
d="M544 192c17.6611 0 32 -14.3389 32 -32v-192c0 -17.6611 -14.3389 -32 -32 -32h-320c-17.6611 0 -32 14.3389 -32 32v192c0 17.6611 14.3389 32 32 32h320zM544 -32v192h-320v-192h320zM371.37 0.80957c-48.3701 6.19043 -83.3701 49.7402 -83.3701 98.5303v20.6602
c0 4.41504 3.58496 8 8 8h16c4.41504 0 8 -3.58496 8 -8v-21.1602c0 -33.4102 24.3701 -63.2998 57.6201 -66.5303c2.09668 -0.207031 4.1582 -0.30957 6.30957 -0.30957c35.3379 0 64.0322 28.6709 64.0703 64v24c0 4.41504 3.58496 8 8 8h16c4.41504 0 8 -3.58496 8 -8
v-24c-0.0615234 -52.9971 -43.0088 -96.0107 -96.0205 -96.0107c-4.27441 0 -8.48242 0.279297 -12.6094 0.820312zM32 256v-256h128v-32h-128c-17.6611 0 -32 14.3389 -32 32v256c0 17.6611 14.3389 32 32 32h96v64c0 52.9834 43.0166 96 96 96s96 -43.0166 96 -96v-64h96
c17.6611 0 32 -14.3389 32 -32v-32h-32v32h-384zM160 352v-64h128v64c0 35.3223 -28.6777 64 -64 64s-64 -28.6777 -64 -64z" />
    <glyph glyph-name="bell-exclamation" unicode="&#xf848;" 
d="M433.37 113.19c9.00293 -8.47754 14.5938 -20.5312 14.5938 -33.8604c0 -6.12402 -1.1875 -11.9736 -3.34375 -17.3301c-7.01855 -17.5879 -24.1895 -30.001 -44.2686 -30.001c-0.117188 0 -0.234375 0 -0.351562 0.000976562h-352
c-0.12207 -0.000976562 -0.216797 -0.0292969 -0.338867 -0.0292969c-20.0625 0 -37.2471 12.418 -44.2812 29.9795c-2.16211 5.3623 -3.38672 11.2461 -3.38672 17.3789c0 13.3447 5.63672 25.3818 14.6572 33.8613c27.9395 26.6191 49.3496 54.5 49.3496 148.899
c0 79.6006 63.3496 144.5 144.03 152.351v17.5596c0 8.83105 7.16895 16 16 16c8.83008 0 16 -7.16895 16 -16v-17.5498c80.6299 -7.86035 144 -72.7598 144 -152.36c0 -94.4199 21.3398 -122.28 49.3398 -148.899zM400 64c14.1602 0 21.3701 16.4404 11.2803 26.0195
c-35.0605 33.3906 -59.2803 70.7305 -59.2803 172.07c0 67.3906 -57.2197 121.91 -128 121.91s-128 -54.5303 -128 -121.91c0 -101.75 -24.46 -138.89 -59.3203 -172.09c-10.0293 -9.53027 -2.89941 -26 11.3203 -26h352zM224 -32c17.6611 0 32 14.3389 32 32h32
c0 -35.3223 -28.6777 -64 -64 -64s-64 28.6777 -64 64h32c0 -17.6611 14.3389 -32 32 -32zM215.5 192c-0.00488281 0 -0.0107422 0.00683594 -0.015625 0.00683594c-4.24512 0 -7.72266 3.31348 -7.98438 7.49316l-7 112
c-0.0107422 0.167969 -0.015625 0.330078 -0.015625 0.5c0 4.41504 3.58398 8 8 8h0.015625h31c0.00488281 0 0.0107422 0.00683594 0.015625 0.00683594c4.41504 0 8 -3.58496 8 -8c0 -0.169922 -0.00488281 -0.338867 -0.015625 -0.506836l-7 -112
c-0.322266 -4.1543 -3.77637 -7.44531 -8 -7.5h-17zM224 168c13.2461 0 24 -10.7539 24 -24s-10.7539 -24 -24 -24s-24 10.7539 -24 24s10.7539 24 24 24z" />
    <glyph glyph-name="bell-plus" unicode="&#xf849;" 
d="M224 -32c17.6611 0 32 14.3389 32 32h32c0 -35.3223 -28.6777 -64 -64 -64s-64 28.6777 -64 64h32c0 -17.6611 14.3389 -32 32 -32zM433.37 113.19c9.00293 -8.47754 14.5938 -20.5312 14.5938 -33.8604c0 -6.12402 -1.1875 -11.9736 -3.34375 -17.3301
c-7.01855 -17.5879 -24.1895 -30.001 -44.2686 -30.001c-0.117188 0 -0.234375 0 -0.351562 0.000976562h-352c-0.12207 -0.000976562 -0.216797 -0.0292969 -0.338867 -0.0292969c-20.0625 0 -37.2471 12.418 -44.2812 29.9795
c-2.16211 5.3623 -3.38672 11.2461 -3.38672 17.3789c0 13.3447 5.63672 25.3818 14.6572 33.8613c27.9395 26.6191 49.3496 54.5 49.3496 148.899c0 79.6006 63.3496 144.5 144.03 152.351v17.5596c0 8.83105 7.16895 16 16 16c8.83008 0 16 -7.16895 16 -16v-17.5498
c80.6299 -7.86035 144 -72.7598 144 -152.36c0 -94.4199 21.3398 -122.28 49.3398 -148.899zM400 64c14.1602 0 21.3701 16.4404 11.2803 26.0195c-35.0605 33.3906 -59.2803 70.7305 -59.2803 172.07c0 67.3906 -57.2197 121.91 -128 121.91s-128 -54.5303 -128 -121.91
c0 -101.75 -24.46 -138.89 -59.3203 -172.09c-10.0293 -9.53027 -2.89941 -26 11.3203 -26h352zM296 224c4.41504 0 8 -3.58496 8 -8v-16c0 -4.41504 -3.58496 -8 -8 -8h-56v-56c0 -4.41504 -3.58496 -8 -8 -8h-16c-4.41504 0 -8 3.58496 -8 8v56h-56
c-4.41504 0 -8 3.58496 -8 8v16c0 4.41504 3.58496 8 8 8h56v56c0 4.41504 3.58496 8 8 8h16c4.41504 0 8 -3.58496 8 -8v-56h56z" />
    <glyph glyph-name="biking" unicode="&#xf84a;" horiz-adv-x="640" 
d="M120 176c66.2295 0 120 -53.7705 120 -120s-53.7705 -120 -120 -120s-120 53.7705 -120 120s53.7705 120 120 120zM120 -32c48.543 0.0546875 87.9453 39.457 88 88c0 48.5684 -39.4316 88 -88 88s-88 -39.4316 -88 -88s39.4316 -88 88 -88zM520 176
c66.2295 0 120 -53.7705 120 -120s-53.7705 -120 -120 -120s-120 53.7705 -120 120s53.7705 120 120 120zM520 -32c48.543 0.0546875 87.9453 39.457 88 88c0 48.5684 -39.4316 88 -88 88s-88 -39.4316 -88 -88s39.4316 -88 88 -88zM374.31 202.21l-24.4697 19.4199
l-16.5 -12.7197l13.3301 -9c12.8838 -8.5918 21.3301 -23.2266 21.3301 -39.8594v-0.0507812v-112c0 -26.4922 -21.5078 -48 -48 -48s-48 21.5078 -48 48v86.3096l-74.6699 49.8301c-12.1904 8.08496 -20.4053 21.6367 -21.2402 37.1406
c-0.879883 15.1299 5.21973 29.4297 17.5703 39.9395l99.25 79c8.21387 7.20215 19.0273 11.5576 30.7988 11.5576c6.33691 0 12.3799 -1.26562 17.8906 -3.55762c-3.58496 8.55664 -5.59668 17.999 -5.59668 27.8506c0 39.7764 32.2939 72.0693 72.0703 72.0693
s72.0693 -32.293 72.0693 -72.0693c0 -39.7773 -32.293 -72.0703 -72.0693 -72.0703h-0.0732422c-2.80957 0.114258 -5.55469 0.393555 -8.26953 0.830078l21.3193 -17.0498h42.9502c26.4922 0 48 -21.5088 48 -48c0 -26.4922 -21.5078 -48 -48 -48h-59.7998
c-11.2744 0.0117188 -21.6836 3.92188 -29.8906 10.4297zM408 416c-22.0762 0 -40 -17.9238 -40 -40s17.9238 -40 40 -40s40 17.9238 40 40s-17.9238 40 -40 40zM328.88 173.31l-50.2002 33.8604l71.4307 55.1104l44.0898 -35c2.73633 -2.18652 6.21582 -3.5 9.9873 -3.5
h0.0126953h59.7998c8.83105 0 16 7.16895 16 16c0 8.83008 -7.16895 16 -16 16h-54.1797l-75.6201 60.5c-2.73633 2.18652 -6.22461 3.49609 -9.99609 3.49609c-3.97559 0 -7.61426 -1.45312 -10.4141 -3.85645l-100.2 -79.7803
c-3.42188 -2.93457 -5.59961 -7.27734 -5.59961 -12.1348c0 -5.55078 2.83301 -10.4453 7.12988 -13.3145l88.8799 -59.25v-103.44c0 -8.83105 7.16895 -16 16 -16s16 7.16895 16 16v112c0 5.55371 -2.81934 10.4404 -7.12012 13.3096z" />
    <glyph glyph-name="biking-mountain" unicode="&#xf84b;" horiz-adv-x="640" 
d="M153.18 269.55l-34.6797 45.0205c-10.0596 13 -8.03027 31.8701 4.5 42l53.4102 41.6396c13.8691 11.1211 31.4434 17.8086 50.5859 17.8086c3.29102 0 6.53516 -0.196289 9.72363 -0.578125c23.7988 -2.85645 44.6797 -15.3555 58.46 -33.5508l-25.3096 -19.5596
c-8.67676 11.5273 -21.8457 19.4668 -36.8701 21.3301c-1.99707 0.25 -4.01465 0.359375 -6.0791 0.359375c-11.6104 0 -22.2773 -4.06934 -30.6514 -10.8594l-53.3994 -41.6602l35.6201 -42.3896zM374.33 202.21l-24.4902 19.4199l-16.5 -12.7197l13.3301 -9
c12.8838 -8.5918 21.3301 -23.2266 21.3301 -39.8594v-0.0507812v-112c0 -26.4922 -21.5078 -48 -48 -48s-48 21.5078 -48 48v86.3096l-74.6602 49.8301c-12.1904 8.08496 -20.4053 21.6367 -21.2402 37.1406c-0.879883 15.1299 5.2207 29.4297 17.5703 39.9395l99.25 79
c8.21094 7.20215 19.0225 11.5586 30.792 11.5586c6.33594 0 12.3779 -1.26562 17.8877 -3.55859c-3.58496 8.55664 -5.59668 17.999 -5.59668 27.8506c0 39.7764 32.2939 72.0693 72.0703 72.0693s72.0693 -32.293 72.0693 -72.0693
c0 -39.7773 -32.293 -72.0703 -72.0693 -72.0703h-0.0732422c-2.80664 0.116211 -5.54688 0.395508 -8.25977 0.830078l21.3193 -17.0498h42.9404c26.4922 0 48 -21.5088 48 -48c0 -26.4922 -21.5078 -48 -48 -48h-59.79
c-11.2705 0.0126953 -21.6768 3.92285 -29.8799 10.4297zM408 416c-22.0762 0 -40 -17.9238 -40 -40s17.9238 -40 40 -40s40 17.9238 40 40s-17.9238 40 -40 40zM328.89 173.31l-50.1895 33.8301l71.4102 55.1406l44.0898 -35c2.73633 -2.18652 6.21582 -3.5 9.9873 -3.5
h0.0126953h59.7998c8.83105 0 16 7.16895 16 16c0 8.83008 -7.16895 16 -16 16h-54.1797l-75.6299 60.5c-2.73633 2.18359 -6.22266 3.49219 -9.99121 3.49219c-3.97363 0 -7.61035 -1.45117 -10.4092 -3.85254l-100.2 -79.7803
c-3.41992 -2.93457 -5.59473 -7.27539 -5.59473 -12.1309c0 -5.55273 2.83496 -10.4492 7.13477 -13.3184l88.8701 -59.25v-103.44c0 -8.83105 7.16895 -16 16 -16s16 7.16895 16 16v112c0 0.00195312 0.0166016 -0.00488281 0.0166016 -0.00292969
c0 5.5498 -2.83105 10.4424 -7.12695 13.3125zM128 120c30.8916 -0.0332031 55.9668 -25.1084 56 -56c0 -30.9072 -25.0928 -56 -56 -56s-56 25.0928 -56 56s25.0928 56 56 56zM128 40c13.2461 0 24 10.7539 24 24s-10.7539 24 -24 24s-24 -10.7539 -24 -24
s10.7539 -24 24 -24zM617 107.17c13.1777 -3.16211 22.999 -15.0283 23 -29.1699v-28c-0.0371094 -14.1094 -9.82812 -25.9473 -22.9697 -29.1396c-0.0664062 -0.201172 -0.151367 -0.396484 -0.25 -0.580078c2.77246 -4.55273 4.39355 -9.93359 4.39355 -15.6494
c0 -8.27344 -3.34863 -15.7715 -8.76367 -21.2109l-19.7803 -19.7998c-5.44629 -5.4209 -12.9902 -8.75098 -21.2734 -8.75098c-5.71191 0 -11.0547 1.59375 -15.6064 4.36133l-0.589844 -0.230469c-3.16113 -13.1738 -15.0234 -22.9941 -29.1602 -23h-28
c-14.1162 0.0166016 -25.96 9.81836 -29.1299 22.9697l-0.589844 0.230469c-4.55078 -2.76172 -9.92676 -4.375 -15.6338 -4.375c-8.28223 0 -15.7881 3.34863 -21.2363 8.76465l-19.79 19.7998c-5.42285 5.44336 -8.75488 12.9863 -8.75488 21.2695
c0 5.70605 1.5918 11.043 4.35449 15.5908c-0.0595703 0.19043 -0.160156 0.389648 -0.219727 0.580078c-13.1621 3.1875 -22.9697 15.041 -23 29.1699v28c0.0439453 14.1045 9.83887 25.9355 22.9805 29.1201c0.0703125 0.198242 0.154297 0.394531 0.25 0.580078
c-2.77246 4.55176 -4.3916 9.93262 -4.3916 15.6475c0 8.27344 3.34766 15.7715 8.76074 21.2119l19.79 19.8008c5.44922 5.41504 12.9912 8.74121 21.2734 8.74121c5.70703 0 11.0459 -1.58984 15.5967 -4.35156l0.589844 0.25c3.16113 13.1709 15.0186 22.9893 29.1504 23
h28c14.1162 -0.0166016 25.96 -9.81836 29.1299 -22.9697l0.560547 -0.230469c4.55371 2.68652 9.90137 4.24902 15.5674 4.24902c8.28027 0 15.7969 -3.29297 21.3125 -8.63867l19.8096 -19.7998c5.42773 -5.43066 8.76367 -12.9648 8.76367 -21.2412
c0 -5.72461 -1.60645 -11.0762 -4.39355 -15.6289c0.0996094 -0.19043 0.160156 -0.379883 0.25 -0.570312zM593.6 52h16.4004l-1.83984 24h-14.6602l-3.41016 11.4404c-1.57715 5.29102 -3.71484 10.4482 -6.28027 15.2295l-5.68945 10.5205l11.6797 11.6396
l-19.8398 16.9502l-0.30957 -3.16992l-8.41016 -8.48047l-10.5303 5.65039c-4.80762 2.58691 -9.99219 4.74707 -15.3096 6.34961l-11.4004 3.41992v16.4502l-26 -2l2.03027 -2.5498v-11.9199l-11.4404 -3.40039c-5.29688 -1.57422 -10.4521 -3.72559 -15.2197 -6.32031
l-10.5 -5.69922l-11.6504 11.6699l-17 -19.79l3.19043 -0.360352l8.5 -8.43945l-5.71973 -10.5303c-2.58203 -4.79785 -4.74219 -9.96777 -6.35059 -15.2705l-3.42969 -11.3896h-16.4102l2 -26l2.54004 2h11.8799l3.48047 -11.3701
c1.58789 -5.29688 3.73926 -10.457 6.31934 -15.2402l5.78027 -10.5498l-11.7998 -11.6699l19.7998 -16.9502l0.410156 3.2207l8.42969 8.43945l10.4697 -5.67969c4.7959 -2.58203 9.9707 -4.73242 15.2803 -6.32031l11.4102 -3.42969v-16.4502l26 2l-2 2.5498v11.9004
l11.3701 3.42969c5.30566 1.57324 10.4707 3.72168 15.25 6.31055l10.5 5.69922l11.6602 -11.6699l17 19.7998l-3.18066 0.360352l-8.5 8.42969l5.7207 10.5303c2.57422 4.7998 4.73047 9.96973 6.33984 15.2705zM233.05 107.16
c13.1055 -3.22266 22.8672 -15.0254 22.9502 -29.1006v-28.0596c-0.0341797 -14.1113 -9.82617 -25.9502 -22.9697 -29.1396c-0.0722656 -0.198242 -0.157227 -0.393555 -0.25 -0.580078c2.77148 -4.55273 4.39062 -9.93359 4.39062 -15.6475
c0 -8.27441 -3.34766 -15.7725 -8.76074 -21.2129l-19.8203 -19.7998c-9.64941 -9.65039 -25.5898 -11.29 -36.8398 -4.38965l-0.589844 -0.230469c-3.16113 -13.1738 -15.0234 -22.9941 -29.1602 -23h-28c-14.1162 0.0166016 -25.96 9.81836 -29.1299 22.9697
c-0.201172 0.0722656 -0.400391 0.15625 -0.589844 0.25c-4.55469 -2.7793 -9.94141 -4.4043 -15.6631 -4.4043c-8.27832 0 -15.7783 3.35352 -21.2168 8.77441l-19.8105 19.7998c-5.42188 5.44043 -8.75195 12.9795 -8.75195 21.2598
c0 5.72266 1.60156 11.0742 4.38184 15.6309c-0.0917969 0.171875 -0.166992 0.358398 -0.219727 0.549805c-13.168 3.17773 -22.9805 15.0361 -23 29.1699v28c0.0166016 14.1299 9.83789 25.9844 23.0098 29.1396c0.0605469 0.19043 0.160156 0.379883 0.220703 0.550781
c-2.78223 4.55566 -4.4082 9.94434 -4.4082 15.6689c0 8.2793 3.35449 15.7822 8.77734 21.2207l19.8105 19.7998c5.44629 5.4209 12.9902 8.75098 21.2734 8.75098c5.71191 0 11.0537 -1.59375 15.6064 -4.36133l0.55957 0.230469
c3.16113 13.1709 15.0186 22.9893 29.1504 23h28c14.125 -0.00683594 25.9785 -9.81152 29.1504 -22.9697l0.589844 -0.230469c11.3096 6.91992 27.25 5.25977 36.8701 -4.38965l19.79 -19.7998c5.41699 -5.44922 8.74316 -12.9932 8.74316 -21.2754
c0 -5.70215 -1.58691 -11.0371 -4.34375 -15.585c0.0722656 -0.201172 0.157227 -0.400391 0.25 -0.589844zM209.52 52h16.4805l-1.82031 24h-14.5996l-3.41992 11.3896c-1.60645 5.30469 -3.75586 10.4814 -6.32031 15.29l-5.64941 10.4707l11.5596 11.6299l-19.75 17
l-0.410156 -3.2207l-8.42969 -8.42969l-10.4697 5.66992c-4.78809 2.58008 -9.95215 4.73438 -15.25 6.33008l-11.4404 3.40039v16.4697l-26 -2l1.99023 -2.54004v-11.9004l-11.4004 -3.41992c-5.31348 -1.58398 -10.4883 -3.73926 -15.2803 -6.33008l-10.5293 -5.68945
l-11.6299 11.7197l-16.9307 -19.8398l3.18066 -0.370117l8.43945 -8.41016l-5.62012 -10.5c-2.58594 -4.81445 -4.74609 -10.0059 -6.34961 -15.3301l-3.42969 -11.3896h-16.4404l2 -26l2.55957 2h11.8809l3.42969 -11.3701
c1.60547 -5.30566 3.75098 -10.4863 6.30957 -15.2998l5.69043 -10.5205l-11.6797 -11.6396l19.8096 -16.9502l0.30957 3.16992l8.41016 8.49023l10.5303 -5.66016c4.80664 -2.58594 9.99121 -4.74316 15.3096 -6.33984l11.4404 -3.41016v-16.4697l26 2l-2 2.5498v11.9004
l11.4004 3.42969c5.30469 1.5752 10.4697 3.72266 15.25 6.31055l10.5 5.69922l11.6494 -11.6699l17 19.7998l-3.17969 0.360352l-8.5 8.42969l5.70996 10.5303c2.57129 4.77051 4.70898 9.92188 6.28027 15.21zM512 120c30.8916 -0.0332031 55.9668 -25.1084 56 -56
c0 -30.9072 -25.0928 -56 -56 -56s-56 25.0928 -56 56s25.0928 56 56 56zM512 40c13.2461 0 24 10.7539 24 24s-10.7539 24 -24 24s-24 -10.7539 -24 -24s10.7539 -24 24 -24z" />
    <glyph glyph-name="border-all" unicode="&#xf84c;" 
d="M432 416c8.83105 0 16 -7.16895 16 -16v-416c0 -8.83105 -7.16895 -16 -16 -16h-416c-8.83105 0 -16 7.16895 -16 16v416c0 8.83105 7.16895 16 16 16h416zM32 384v-176h176v176h-176zM32 0h176v176h-176v-176zM416 0v176h-176v-176h176zM416 208v176h-176v-176h176z" />
    <glyph glyph-name="border-bottom" unicode="&#xf84d;" 
d="M440 0c4.41504 0 8 -3.58496 8 -8v-16c0 -4.41504 -3.58496 -8 -8 -8h-432c-4.41504 0 -8 3.58496 -8 8v16c0 4.41504 3.58496 8 8 8h432zM216 168c-8.83105 0 -16 7.16895 -16 16v16c0 8.83105 7.16895 16 16 16h16c8.83105 0 16 -7.16895 16 -16v-16
c0 -8.83105 -7.16895 -16 -16 -16h-16zM216 72c-8.83105 0 -16 7.16895 -16 16v16c0 8.83105 7.16895 16 16 16h16c8.83105 0 16 -7.16895 16 -16v-16c0 -8.83105 -7.16895 -16 -16 -16h-16zM120 168c-8.83105 0 -16 7.16895 -16 16v16c0 8.83105 7.16895 16 16 16h16
c8.83105 0 16 -7.16895 16 -16v-16c0 -8.83105 -7.16895 -16 -16 -16h-16zM120 368c-8.83105 0 -16 7.16895 -16 16v16c0 8.83105 7.16895 16 16 16h16c8.83105 0 16 -7.16895 16 -16v-16c0 -8.83105 -7.16895 -16 -16 -16h-16zM312 168c-8.83105 0 -16 7.16895 -16 16v16
c0 8.83105 7.16895 16 16 16h16c8.83105 0 16 -7.16895 16 -16v-16c0 -8.83105 -7.16895 -16 -16 -16h-16zM312 368c-8.83105 0 -16 7.16895 -16 16v16c0 8.83105 7.16895 16 16 16h16c8.83105 0 16 -7.16895 16 -16v-16c0 -8.83105 -7.16895 -16 -16 -16h-16zM216 264
c-8.83105 0 -16 7.16895 -16 16v16c0 8.83105 7.16895 16 16 16h16c8.83105 0 16 -7.16895 16 -16v-16c0 -8.83105 -7.16895 -16 -16 -16h-16zM216 368c-8.83105 0 -16 7.16895 -16 16v16c0 8.83105 7.16895 16 16 16h16c8.83105 0 16 -7.16895 16 -16v-16
c0 -8.83105 -7.16895 -16 -16 -16h-16zM16 368c-8.83105 0 -16 7.16895 -16 16v16c0 8.83105 7.16895 16 16 16h16c8.83105 0 16 -7.16895 16 -16v-16c0 -8.83105 -7.16895 -16 -16 -16h-16zM432 312c8.83105 0 16 -7.16895 16 -16v-16c0 -8.83105 -7.16895 -16 -16 -16h-16
c-8.83105 0 -16 7.16895 -16 16v16c0 8.83105 7.16895 16 16 16h16zM432 416c8.83105 0 16 -7.16895 16 -16v-16c0 -8.83105 -7.16895 -16 -16 -16h-16c-8.83105 0 -16 7.16895 -16 16v16c0 8.83105 7.16895 16 16 16h16zM432 216c8.83105 0 16 -7.16895 16 -16v-16
c0 -8.83105 -7.16895 -16 -16 -16h-16c-8.83105 0 -16 7.16895 -16 16v16c0 8.83105 7.16895 16 16 16h16zM432 120c8.83105 0 16 -7.16895 16 -16v-16c0 -8.83105 -7.16895 -16 -16 -16h-16c-8.83105 0 -16 7.16895 -16 16v16c0 8.83105 7.16895 16 16 16h16zM16 264
c-8.83105 0 -16 7.16895 -16 16v16c0 8.83105 7.16895 16 16 16h16c8.83105 0 16 -7.16895 16 -16v-16c0 -8.83105 -7.16895 -16 -16 -16h-16zM16 168c-8.83105 0 -16 7.16895 -16 16v16c0 8.83105 7.16895 16 16 16h16c8.83105 0 16 -7.16895 16 -16v-16
c0 -8.83105 -7.16895 -16 -16 -16h-16zM16 72c-8.83105 0 -16 7.16895 -16 16v16c0 8.83105 7.16895 16 16 16h16c8.83105 0 16 -7.16895 16 -16v-16c0 -8.83105 -7.16895 -16 -16 -16h-16z" />
    <glyph glyph-name="border-inner" unicode="&#xf84e;" 
d="M439 208c4.41504 0 8 -3.58496 8 -8v-16c0 -4.41504 -3.58496 -8 -8 -8h-200v-200c0 -4.41504 -3.58496 -8 -8 -8h-16c-4.41504 0 -8 3.58496 -8 8v200h-200c-4.41504 0 -8 3.58496 -8 8v16c0 4.41504 3.58496 8 8 8h200v200c0 4.41504 3.58496 8 8 8h16
c4.41504 0 8 -3.58496 8 -8v-200h200zM15 264c-8.83105 0 -16 7.16895 -16 16v16c0 8.83105 7.16895 16 16 16h16c8.83105 0 16 -7.16895 16 -16v-16c0 -8.83105 -7.16895 -16 -16 -16h-16zM31 16c8.83105 0 16 -7.16895 16 -16v-16c0 -8.83105 -7.16895 -16 -16 -16h-16
c-8.83105 0 -16 7.16895 -16 16v16c0 8.83105 7.16895 16 16 16h16zM15 368c-8.83105 0 -16 7.16895 -16 16v16c0 8.83105 7.16895 16 16 16h16c8.83105 0 16 -7.16895 16 -16v-16c0 -8.83105 -7.16895 -16 -16 -16h-16zM31 120c8.83105 0 16 -7.16895 16 -16v-16
c0 -8.83105 -7.16895 -16 -16 -16h-16c-8.83105 0 -16 7.16895 -16 16v16c0 8.83105 7.16895 16 16 16h16zM311 368c-8.83105 0 -16 7.16895 -16 16v16c0 8.83105 7.16895 16 16 16h16c8.83105 0 16 -7.16895 16 -16v-16c0 -8.83105 -7.16895 -16 -16 -16h-16zM119 368
c-8.83105 0 -16 7.16895 -16 16v16c0 8.83105 7.16895 16 16 16h16c8.83105 0 16 -7.16895 16 -16v-16c0 -8.83105 -7.16895 -16 -16 -16h-16zM431 312c8.83105 0 16 -7.16895 16 -16v-16c0 -8.83105 -7.16895 -16 -16 -16h-16c-8.83105 0 -16 7.16895 -16 16v16
c0 8.83105 7.16895 16 16 16h16zM135 16c8.83105 0 16 -7.16895 16 -16v-16c0 -8.83105 -7.16895 -16 -16 -16h-16c-8.83105 0 -16 7.16895 -16 16v16c0 8.83105 7.16895 16 16 16h16zM431 416c8.83105 0 16 -7.16895 16 -16v-16c0 -8.83105 -7.16895 -16 -16 -16h-16
c-8.83105 0 -16 7.16895 -16 16v16c0 8.83105 7.16895 16 16 16h16zM431 120c8.83105 0 16 -7.16895 16 -16v-16c0 -8.83105 -7.16895 -16 -16 -16h-16c-8.83105 0 -16 7.16895 -16 16v16c0 8.83105 7.16895 16 16 16h16zM327 16c8.83105 0 16 -7.16895 16 -16v-16
c0 -8.83105 -7.16895 -16 -16 -16h-16c-8.83105 0 -16 7.16895 -16 16v16c0 8.83105 7.16895 16 16 16h16zM431 16c8.83105 0 16 -7.16895 16 -16v-16c0 -8.83105 -7.16895 -16 -16 -16h-16c-8.83105 0 -16 7.16895 -16 16v16c0 8.83105 7.16895 16 16 16h16z" />
    <glyph glyph-name="border-left" unicode="&#xf84f;" 
d="M24 416c4.41504 0 8 -3.58496 8 -8v-432c0 -4.41504 -3.58496 -8 -8 -8h-16c-4.41504 0 -8 3.58496 -8 8v432c0 4.41504 3.58496 8 8 8h16zM232 416c8.83105 0 16 -7.16895 16 -16v-16c0 -8.83105 -7.16895 -16 -16 -16h-16c-8.83105 0 -16 7.16895 -16 16v16
c0 8.83105 7.16895 16 16 16h16zM232 120c8.83105 0 16 -7.16895 16 -16v-16c0 -8.83105 -7.16895 -16 -16 -16h-16c-8.83105 0 -16 7.16895 -16 16v16c0 8.83105 7.16895 16 16 16h16zM232 312c8.83105 0 16 -7.16895 16 -16v-16c0 -8.83105 -7.16895 -16 -16 -16h-16
c-8.83105 0 -16 7.16895 -16 16v16c0 8.83105 7.16895 16 16 16h16zM232 216c8.83105 0 16 -7.16895 16 -16v-16c0 -8.83105 -7.16895 -16 -16 -16h-16c-8.83105 0 -16 7.16895 -16 16v16c0 8.83105 7.16895 16 16 16h16zM136 416c8.83105 0 16 -7.16895 16 -16v-16
c0 -8.83105 -7.16895 -16 -16 -16h-16c-8.83105 0 -16 7.16895 -16 16v16c0 8.83105 7.16895 16 16 16h16zM136 16c8.83105 0 16 -7.16895 16 -16v-16c0 -8.83105 -7.16895 -16 -16 -16h-16c-8.83105 0 -16 7.16895 -16 16v16c0 8.83105 7.16895 16 16 16h16zM136 216
c8.83105 0 16 -7.16895 16 -16v-16c0 -8.83105 -7.16895 -16 -16 -16h-16c-8.83105 0 -16 7.16895 -16 16v16c0 8.83105 7.16895 16 16 16h16zM232 16c8.83105 0 16 -7.16895 16 -16v-16c0 -8.83105 -7.16895 -16 -16 -16h-16c-8.83105 0 -16 7.16895 -16 16v16
c0 8.83105 7.16895 16 16 16h16zM432 216c8.83105 0 16 -7.16895 16 -16v-16c0 -8.83105 -7.16895 -16 -16 -16h-16c-8.83105 0 -16 7.16895 -16 16v16c0 8.83105 7.16895 16 16 16h16zM432 312c8.83105 0 16 -7.16895 16 -16v-16c0 -8.83105 -7.16895 -16 -16 -16h-16
c-8.83105 0 -16 7.16895 -16 16v16c0 8.83105 7.16895 16 16 16h16zM432 416c8.83105 0 16 -7.16895 16 -16v-16c0 -8.83105 -7.16895 -16 -16 -16h-16c-8.83105 0 -16 7.16895 -16 16v16c0 8.83105 7.16895 16 16 16h16zM328 16c8.83105 0 16 -7.16895 16 -16v-16
c0 -8.83105 -7.16895 -16 -16 -16h-16c-8.83105 0 -16 7.16895 -16 16v16c0 8.83105 7.16895 16 16 16h16zM432 120c8.83105 0 16 -7.16895 16 -16v-16c0 -8.83105 -7.16895 -16 -16 -16h-16c-8.83105 0 -16 7.16895 -16 16v16c0 8.83105 7.16895 16 16 16h16zM432 16
c8.83105 0 16 -7.16895 16 -16v-16c0 -8.83105 -7.16895 -16 -16 -16h-16c-8.83105 0 -16 7.16895 -16 16v16c0 8.83105 7.16895 16 16 16h16zM328 216c8.83105 0 16 -7.16895 16 -16v-16c0 -8.83105 -7.16895 -16 -16 -16h-16c-8.83105 0 -16 7.16895 -16 16v16
c0 8.83105 7.16895 16 16 16h16zM328 416c8.83105 0 16 -7.16895 16 -16v-16c0 -8.83105 -7.16895 -16 -16 -16h-16c-8.83105 0 -16 7.16895 -16 16v16c0 8.83105 7.16895 16 16 16h16z" />
    <glyph glyph-name="border-none" unicode="&#xf850;" 
d="M432 416c8.83105 0 16 -7.16895 16 -16v-16c0 -8.83105 -7.16895 -16 -16 -16h-16c-8.83105 0 -16 7.16895 -16 16v16c0 8.83105 7.16895 16 16 16h16zM32 416c8.83105 0 16 -7.16895 16 -16v-16c0 -8.83105 -7.16895 -16 -16 -16h-16c-8.83105 0 -16 7.16895 -16 16v16
c0 8.83105 7.16895 16 16 16h16zM432 16c8.83105 0 16 -7.16895 16 -16v-16c0 -8.83105 -7.16895 -16 -16 -16h-16c-8.83105 0 -16 7.16895 -16 16v16c0 8.83105 7.16895 16 16 16h16zM432 312c8.83105 0 16 -7.16895 16 -16v-16c0 -8.83105 -7.16895 -16 -16 -16h-16
c-8.83105 0 -16 7.16895 -16 16v16c0 8.83105 7.16895 16 16 16h16zM432 120c8.83105 0 16 -7.16895 16 -16v-16c0 -8.83105 -7.16895 -16 -16 -16h-16c-8.83105 0 -16 7.16895 -16 16v16c0 8.83105 7.16895 16 16 16h16zM432 216c8.83105 0 16 -7.16895 16 -16v-16
c0 -8.83105 -7.16895 -16 -16 -16h-16c-8.83105 0 -16 7.16895 -16 16v16c0 8.83105 7.16895 16 16 16h16zM328 216c8.83105 0 16 -7.16895 16 -16v-16c0 -8.83105 -7.16895 -16 -16 -16h-16c-8.83105 0 -16 7.16895 -16 16v16c0 8.83105 7.16895 16 16 16h16zM32 312
c8.83105 0 16 -7.16895 16 -16v-16c0 -8.83105 -7.16895 -16 -16 -16h-16c-8.83105 0 -16 7.16895 -16 16v16c0 8.83105 7.16895 16 16 16h16zM232 312c8.83105 0 16 -7.16895 16 -16v-16c0 -8.83105 -7.16895 -16 -16 -16h-16c-8.83105 0 -16 7.16895 -16 16v16
c0 8.83105 7.16895 16 16 16h16zM232 120c8.83105 0 16 -7.16895 16 -16v-16c0 -8.83105 -7.16895 -16 -16 -16h-16c-8.83105 0 -16 7.16895 -16 16v16c0 8.83105 7.16895 16 16 16h16zM232 216c8.83105 0 16 -7.16895 16 -16v-16c0 -8.83105 -7.16895 -16 -16 -16h-16
c-8.83105 0 -16 7.16895 -16 16v16c0 8.83105 7.16895 16 16 16h16zM32 120c8.83105 0 16 -7.16895 16 -16v-16c0 -8.83105 -7.16895 -16 -16 -16h-16c-8.83105 0 -16 7.16895 -16 16v16c0 8.83105 7.16895 16 16 16h16zM32 216c8.83105 0 16 -7.16895 16 -16v-16
c0 -8.83105 -7.16895 -16 -16 -16h-16c-8.83105 0 -16 7.16895 -16 16v16c0 8.83105 7.16895 16 16 16h16zM136 216c8.83105 0 16 -7.16895 16 -16v-16c0 -8.83105 -7.16895 -16 -16 -16h-16c-8.83105 0 -16 7.16895 -16 16v16c0 8.83105 7.16895 16 16 16h16zM32 16
c8.83105 0 16 -7.16895 16 -16v-16c0 -8.83105 -7.16895 -16 -16 -16h-16c-8.83105 0 -16 7.16895 -16 16v16c0 8.83105 7.16895 16 16 16h16zM136 16c8.83105 0 16 -7.16895 16 -16v-16c0 -8.83105 -7.16895 -16 -16 -16h-16c-8.83105 0 -16 7.16895 -16 16v16
c0 8.83105 7.16895 16 16 16h16zM328 16c8.83105 0 16 -7.16895 16 -16v-16c0 -8.83105 -7.16895 -16 -16 -16h-16c-8.83105 0 -16 7.16895 -16 16v16c0 8.83105 7.16895 16 16 16h16zM232 16c8.83105 0 16 -7.16895 16 -16v-16c0 -8.83105 -7.16895 -16 -16 -16h-16
c-8.83105 0 -16 7.16895 -16 16v16c0 8.83105 7.16895 16 16 16h16zM136 416c8.83105 0 16 -7.16895 16 -16v-16c0 -8.83105 -7.16895 -16 -16 -16h-16c-8.83105 0 -16 7.16895 -16 16v16c0 8.83105 7.16895 16 16 16h16zM328 416c8.83105 0 16 -7.16895 16 -16v-16
c0 -8.83105 -7.16895 -16 -16 -16h-16c-8.83105 0 -16 7.16895 -16 16v16c0 8.83105 7.16895 16 16 16h16zM232 416c8.83105 0 16 -7.16895 16 -16v-16c0 -8.83105 -7.16895 -16 -16 -16h-16c-8.83105 0 -16 7.16895 -16 16v16c0 8.83105 7.16895 16 16 16h16z" />
    <glyph glyph-name="border-outer" unicode="&#xf851;" 
d="M216 263c-8.83105 0 -16 7.16895 -16 16v16c0 8.83105 7.16895 16 16 16h16c8.83105 0 16 -7.16895 16 -16v-16c0 -8.83105 -7.16895 -16 -16 -16h-16zM312 167c-8.83105 0 -16 7.16895 -16 16v16c0 8.83105 7.16895 16 16 16h16c8.83105 0 16 -7.16895 16 -16v-16
c0 -8.83105 -7.16895 -16 -16 -16h-16zM216 167c-8.83105 0 -16 7.16895 -16 16v16c0 8.83105 7.16895 16 16 16h16c8.83105 0 16 -7.16895 16 -16v-16c0 -8.83105 -7.16895 -16 -16 -16h-16zM120 167c-8.83105 0 -16 7.16895 -16 16v16c0 8.83105 7.16895 16 16 16h16
c8.83105 0 16 -7.16895 16 -16v-16c0 -8.83105 -7.16895 -16 -16 -16h-16zM216 71c-8.83105 0 -16 7.16895 -16 16v16c0 8.83105 7.16895 16 16 16h16c8.83105 0 16 -7.16895 16 -16v-16c0 -8.83105 -7.16895 -16 -16 -16h-16zM432 415c8.83105 0 16 -7.16895 16 -16v-416
c0 -8.83105 -7.16895 -16 -16 -16h-416c-8.83105 0 -16 7.16895 -16 16v416c0 8.83105 7.16895 16 16 16h416zM416 -1v384h-384v-384h384z" />
    <glyph glyph-name="border-right" unicode="&#xf852;" 
d="M440 416c4.41504 0 8 -3.58496 8 -8v-432c0 -4.41504 -3.58496 -8 -8 -8h-16c-4.41504 0 -8 3.58496 -8 8v432c0 4.41504 3.58496 8 8 8h16zM136 16c8.83105 0 16 -7.16895 16 -16v-16c0 -8.83105 -7.16895 -16 -16 -16h-16c-8.83105 0 -16 7.16895 -16 16v16
c0 8.83105 7.16895 16 16 16h16zM32 416c8.83105 0 16 -7.16895 16 -16v-16c0 -8.83105 -7.16895 -16 -16 -16h-16c-8.83105 0 -16 7.16895 -16 16v16c0 8.83105 7.16895 16 16 16h16zM136 416c8.83105 0 16 -7.16895 16 -16v-16c0 -8.83105 -7.16895 -16 -16 -16h-16
c-8.83105 0 -16 7.16895 -16 16v16c0 8.83105 7.16895 16 16 16h16zM136 216c8.83105 0 16 -7.16895 16 -16v-16c0 -8.83105 -7.16895 -16 -16 -16h-16c-8.83105 0 -16 7.16895 -16 16v16c0 8.83105 7.16895 16 16 16h16zM32 120c8.83105 0 16 -7.16895 16 -16v-16
c0 -8.83105 -7.16895 -16 -16 -16h-16c-8.83105 0 -16 7.16895 -16 16v16c0 8.83105 7.16895 16 16 16h16zM32 16c8.83105 0 16 -7.16895 16 -16v-16c0 -8.83105 -7.16895 -16 -16 -16h-16c-8.83105 0 -16 7.16895 -16 16v16c0 8.83105 7.16895 16 16 16h16zM32 216
c8.83105 0 16 -7.16895 16 -16v-16c0 -8.83105 -7.16895 -16 -16 -16h-16c-8.83105 0 -16 7.16895 -16 16v16c0 8.83105 7.16895 16 16 16h16zM32 312c8.83105 0 16 -7.16895 16 -16v-16c0 -8.83105 -7.16895 -16 -16 -16h-16c-8.83105 0 -16 7.16895 -16 16v16
c0 8.83105 7.16895 16 16 16h16zM232 312c8.83105 0 16 -7.16895 16 -16v-16c0 -8.83105 -7.16895 -16 -16 -16h-16c-8.83105 0 -16 7.16895 -16 16v16c0 8.83105 7.16895 16 16 16h16zM328 216c8.83105 0 16 -7.16895 16 -16v-16c0 -8.83105 -7.16895 -16 -16 -16h-16
c-8.83105 0 -16 7.16895 -16 16v16c0 8.83105 7.16895 16 16 16h16zM328 416c8.83105 0 16 -7.16895 16 -16v-16c0 -8.83105 -7.16895 -16 -16 -16h-16c-8.83105 0 -16 7.16895 -16 16v16c0 8.83105 7.16895 16 16 16h16zM328 16c8.83105 0 16 -7.16895 16 -16v-16
c0 -8.83105 -7.16895 -16 -16 -16h-16c-8.83105 0 -16 7.16895 -16 16v16c0 8.83105 7.16895 16 16 16h16zM232 416c8.83105 0 16 -7.16895 16 -16v-16c0 -8.83105 -7.16895 -16 -16 -16h-16c-8.83105 0 -16 7.16895 -16 16v16c0 8.83105 7.16895 16 16 16h16zM232 16
c8.83105 0 16 -7.16895 16 -16v-16c0 -8.83105 -7.16895 -16 -16 -16h-16c-8.83105 0 -16 7.16895 -16 16v16c0 8.83105 7.16895 16 16 16h16zM232 120c8.83105 0 16 -7.16895 16 -16v-16c0 -8.83105 -7.16895 -16 -16 -16h-16c-8.83105 0 -16 7.16895 -16 16v16
c0 8.83105 7.16895 16 16 16h16zM232 216c8.83105 0 16 -7.16895 16 -16v-16c0 -8.83105 -7.16895 -16 -16 -16h-16c-8.83105 0 -16 7.16895 -16 16v16c0 8.83105 7.16895 16 16 16h16z" />
    <glyph glyph-name="border-style" unicode="&#xf853;" 
d="M440 416c4.41504 0 8 -3.58496 8 -8v-16c0 -4.41504 -3.58496 -8 -8 -8h-408v-408c0 -4.41504 -3.58496 -8 -8 -8h-16c-4.41504 0 -8 3.58496 -8 8v424c0 8.83105 7.16895 16 16 16h424zM232 16c8.83105 0 16 -7.16895 16 -16v-16c0 -8.83105 -7.16895 -16 -16 -16h-16
c-8.83105 0 -16 7.16895 -16 16v16c0 8.83105 7.16895 16 16 16h16zM328 16c8.83105 0 16 -7.16895 16 -16v-16c0 -8.83105 -7.16895 -16 -16 -16h-16c-8.83105 0 -16 7.16895 -16 16v16c0 8.83105 7.16895 16 16 16h16zM136 16c8.83105 0 16 -7.16895 16 -16v-16
c0 -8.83105 -7.16895 -16 -16 -16h-16c-8.83105 0 -16 7.16895 -16 16v16c0 8.83105 7.16895 16 16 16h16zM432 216c8.83105 0 16 -7.16895 16 -16v-16c0 -8.83105 -7.16895 -16 -16 -16h-16c-8.83105 0 -16 7.16895 -16 16v16c0 8.83105 7.16895 16 16 16h16zM432 312
c8.83105 0 16 -7.16895 16 -16v-16c0 -8.83105 -7.16895 -16 -16 -16h-16c-8.83105 0 -16 7.16895 -16 16v16c0 8.83105 7.16895 16 16 16h16zM432 16c8.83105 0 16 -7.16895 16 -16v-16c0 -8.83105 -7.16895 -16 -16 -16h-16c-8.83105 0 -16 7.16895 -16 16v16
c0 8.83105 7.16895 16 16 16h16zM432 120c8.83105 0 16 -7.16895 16 -16v-16c0 -8.83105 -7.16895 -16 -16 -16h-16c-8.83105 0 -16 7.16895 -16 16v16c0 8.83105 7.16895 16 16 16h16z" />
    <glyph glyph-name="border-style-alt" unicode="&#xf854;" 
d="M439 416c4.41504 0 8 -3.58496 8 -8v-424c0 -8.83105 -7.16895 -16 -16 -16h-424c-4.41504 0 -8 3.58496 -8 8v16c0 4.41504 3.58496 8 8 8h408v408c0 4.41504 3.58496 8 8 8h16zM15 368c-8.83105 0 -16 7.16895 -16 16v16c0 8.83105 7.16895 16 16 16h16
c8.83105 0 16 -7.16895 16 -16v-16c0 -8.83105 -7.16895 -16 -16 -16h-16zM215 368c-8.83105 0 -16 7.16895 -16 16v16c0 8.83105 7.16895 16 16 16h16c8.83105 0 16 -7.16895 16 -16v-16c0 -8.83105 -7.16895 -16 -16 -16h-16zM311 368c-8.83105 0 -16 7.16895 -16 16v16
c0 8.83105 7.16895 16 16 16h16c8.83105 0 16 -7.16895 16 -16v-16c0 -8.83105 -7.16895 -16 -16 -16h-16zM119 368c-8.83105 0 -16 7.16895 -16 16v16c0 8.83105 7.16895 16 16 16h16c8.83105 0 16 -7.16895 16 -16v-16c0 -8.83105 -7.16895 -16 -16 -16h-16zM15 72
c-8.83105 0 -16 7.16895 -16 16v16c0 8.83105 7.16895 16 16 16h16c8.83105 0 16 -7.16895 16 -16v-16c0 -8.83105 -7.16895 -16 -16 -16h-16zM15 168c-8.83105 0 -16 7.16895 -16 16v16c0 8.83105 7.16895 16 16 16h16c8.83105 0 16 -7.16895 16 -16v-16
c0 -8.83105 -7.16895 -16 -16 -16h-16zM15 264c-8.83105 0 -16 7.16895 -16 16v16c0 8.83105 7.16895 16 16 16h16c8.83105 0 16 -7.16895 16 -16v-16c0 -8.83105 -7.16895 -16 -16 -16h-16z" />
    <glyph glyph-name="border-top" unicode="&#xf855;" 
d="M440 416c4.41504 0 8 -3.58496 8 -8v-16c0 -4.41504 -3.58496 -8 -8 -8h-432c-4.41504 0 -8 3.58496 -8 8v16c0 4.41504 3.58496 8 8 8h432zM32 312c8.83105 0 16 -7.16895 16 -16v-16c0 -8.83105 -7.16895 -16 -16 -16h-16c-8.83105 0 -16 7.16895 -16 16v16
c0 8.83105 7.16895 16 16 16h16zM232 120c8.83105 0 16 -7.16895 16 -16v-16c0 -8.83105 -7.16895 -16 -16 -16h-16c-8.83105 0 -16 7.16895 -16 16v16c0 8.83105 7.16895 16 16 16h16zM232 16c8.83105 0 16 -7.16895 16 -16v-16c0 -8.83105 -7.16895 -16 -16 -16h-16
c-8.83105 0 -16 7.16895 -16 16v16c0 8.83105 7.16895 16 16 16h16zM136 216c8.83105 0 16 -7.16895 16 -16v-16c0 -8.83105 -7.16895 -16 -16 -16h-16c-8.83105 0 -16 7.16895 -16 16v16c0 8.83105 7.16895 16 16 16h16zM32 216c8.83105 0 16 -7.16895 16 -16v-16
c0 -8.83105 -7.16895 -16 -16 -16h-16c-8.83105 0 -16 7.16895 -16 16v16c0 8.83105 7.16895 16 16 16h16zM32 16c8.83105 0 16 -7.16895 16 -16v-16c0 -8.83105 -7.16895 -16 -16 -16h-16c-8.83105 0 -16 7.16895 -16 16v16c0 8.83105 7.16895 16 16 16h16zM32 120
c8.83105 0 16 -7.16895 16 -16v-16c0 -8.83105 -7.16895 -16 -16 -16h-16c-8.83105 0 -16 7.16895 -16 16v16c0 8.83105 7.16895 16 16 16h16zM136 16c8.83105 0 16 -7.16895 16 -16v-16c0 -8.83105 -7.16895 -16 -16 -16h-16c-8.83105 0 -16 7.16895 -16 16v16
c0 8.83105 7.16895 16 16 16h16zM432 16c8.83105 0 16 -7.16895 16 -16v-16c0 -8.83105 -7.16895 -16 -16 -16h-16c-8.83105 0 -16 7.16895 -16 16v16c0 8.83105 7.16895 16 16 16h16zM432 216c8.83105 0 16 -7.16895 16 -16v-16c0 -8.83105 -7.16895 -16 -16 -16h-16
c-8.83105 0 -16 7.16895 -16 16v16c0 8.83105 7.16895 16 16 16h16zM432 120c8.83105 0 16 -7.16895 16 -16v-16c0 -8.83105 -7.16895 -16 -16 -16h-16c-8.83105 0 -16 7.16895 -16 16v16c0 8.83105 7.16895 16 16 16h16zM432 312c8.83105 0 16 -7.16895 16 -16v-16
c0 -8.83105 -7.16895 -16 -16 -16h-16c-8.83105 0 -16 7.16895 -16 16v16c0 8.83105 7.16895 16 16 16h16zM328 216c8.83105 0 16 -7.16895 16 -16v-16c0 -8.83105 -7.16895 -16 -16 -16h-16c-8.83105 0 -16 7.16895 -16 16v16c0 8.83105 7.16895 16 16 16h16zM232 216
c8.83105 0 16 -7.16895 16 -16v-16c0 -8.83105 -7.16895 -16 -16 -16h-16c-8.83105 0 -16 7.16895 -16 16v16c0 8.83105 7.16895 16 16 16h16zM232 312c8.83105 0 16 -7.16895 16 -16v-16c0 -8.83105 -7.16895 -16 -16 -16h-16c-8.83105 0 -16 7.16895 -16 16v16
c0 8.83105 7.16895 16 16 16h16zM328 16c8.83105 0 16 -7.16895 16 -16v-16c0 -8.83105 -7.16895 -16 -16 -16h-16c-8.83105 0 -16 7.16895 -16 16v16c0 8.83105 7.16895 16 16 16h16z" />
    <glyph glyph-name="burger-soda" unicode="&#xf858;" horiz-adv-x="640" 
d="M640 72c-0.0556641 -13.8594 -5.21484 -26.5596 -13.6797 -36.2598c8.41699 -7.97168 13.6641 -19.2471 13.6797 -31.7402c-0.0439453 -37.5098 -30.4902 -67.9561 -68 -68h-248c-37.5098 0.0439453 -67.9561 30.4902 -68 68
c0.0214844 12.4951 5.27441 23.7715 13.7002 31.7402c-8.50879 9.7041 -13.7031 22.4346 -13.7031 36.3418c0 16.3662 7.14453 31.0762 18.4834 41.1777c-11.457 10.7324 -18.5713 26.0439 -18.5713 42.9658c0 12.8955 4.16016 24.8271 11.2109 34.5244
c34.8799 49.25 105.88 81.1904 180.88 81.25c75 -0.0595703 146 -32 180.91 -81.25c7.0459 -9.69727 11.252 -21.6768 11.252 -34.5684c0 -16.9238 -7.16406 -32.1875 -18.6221 -42.9219c11.3115 -10.1611 18.4189 -24.8818 18.46 -41.2598zM293.22 172.27
c-13.2197 -18.6494 0.169922 -44.2695 23.21 -44.2695h263.141c23.0498 0 36.4297 25.6104 23.2197 44.2695c-26.79 37.8604 -85.79 67.79 -154.79 67.7305s-128 -29.8701 -154.78 -67.7305zM572 -32c19.8691 0 36 16.1309 36 36c0 6.62305 -5.37695 12 -12 12h-296
c-6.62305 0 -12 -5.37695 -12 -12c0 -19.8691 16.1309 -36 36 -36h248zM584 48c13.2461 0 24 10.7539 24 24s-10.7539 24 -24 24h-272c-13.2461 0 -24 -10.7539 -24 -24s10.7539 -24 24 -24h272zM448 176c-8.83105 0 -16 7.16895 -16 16s7.16895 16 16 16
s16 -7.16895 16 -16s-7.16895 -16 -16 -16zM528 160c-8.83105 0 -16 7.16895 -16 16s7.16895 16 16 16s16 -7.16895 16 -16s-7.16895 -16 -16 -16zM368 160c-8.83105 0 -16 7.16895 -16 16s7.16895 16 16 16s16 -7.16895 16 -16s-7.16895 -16 -16 -16zM95.8896 -31.1104
l135.04 -0.75c4.65234 -12.0156 11.5303 -22.8906 20.1807 -32.1396h-155.11c-0.0654297 0 -0.128906 0.0273438 -0.194336 0.0273438c-16.8564 0 -30.6758 13.1113 -31.8057 29.6826l-32 320.61v1.67969h-24c-4.41504 0 -8 3.58496 -8 8v16c0 4.41504 3.58496 8 8 8h171.5
l25.9404 103.75c3.47266 13.915 16.0625 24.25 31.0469 24.25h0.0126953h43.5c4.41504 0 8 -3.58496 8 -8v-16c0 -4.41504 -3.58496 -8 -8 -8h-43.5l-24 -96h131.5c4.41504 0 8 -3.58496 8 -8v-16c0 -4.41504 -3.58496 -8 -8 -8h-280.11z" />
    <glyph glyph-name="car-building" unicode="&#xf859;" horiz-adv-x="640" 
d="M595.4 153.56c26.2461 -11.5547 44.5439 -37.7451 44.5996 -68.2295v-55.1104c-0.0751953 -20.46 -13.4922 -37.791 -32 -43.75v-34.4697c0 -8.83105 -7.16895 -16 -16 -16h-16c-8.83105 0 -16 7.16895 -16 16v32h-256v-32c0 -8.83105 -7.16895 -16 -16 -16h-16
c-8.83105 0 -16 7.16895 -16 16v34.4697c-18.5078 5.95898 -31.9248 23.29 -32 43.75v55.1104c0 29.1797 17 54.2295 41.4297 66.5098l16.2803 70.5498c6.43359 28.3682 31.8154 49.6104 62.1182 49.6104h0.242188h173.09
c0.078125 0 0.148438 -0.0380859 0.226562 -0.0380859c30.3047 0 55.6953 -21.2041 62.1328 -49.5723zM312.89 215.2l-12.7393 -55.2002h260.92l-12.7305 55.2002c-3.27637 14.1895 -16.001 24.7998 -31.1797 24.7998h-173.09
c-15.1797 0 -27.9033 -10.6104 -31.1807 -24.7998zM608 30.2197v55.1104c-0.0273438 23.5371 -19.1328 42.6426 -42.6699 42.6699h-266.66c-23.5371 -0.0273438 -42.6426 -19.1328 -42.6699 -42.6699v-55.1104c0.0107422 -7.84277 6.37695 -14.209 14.2197 -14.2197h323.561
c7.84277 0.0107422 14.209 6.37695 14.2197 14.2197zM320 400c0 8.83105 -7.16895 16 -16 16h-256c-8.83105 0 -16 -7.16895 -16 -16v-392c0 -4.41504 -3.58496 -8 -8 -8h-16c-4.41504 0 -8 3.58496 -8 8v392c0 26.4922 21.5078 48 48 48h256c26.4922 0 48 -21.5078 48 -48
v-96h-32v96zM204 352h40c6.62305 0 12 -5.37695 12 -12v-40c0 -6.62305 -5.37695 -12 -12 -12h-40c-6.62305 0 -12 5.37695 -12 12v40c0 6.62305 5.37695 12 12 12zM148 256c6.62305 0 12 -5.37695 12 -12v-40c0 -6.62305 -5.37695 -12 -12 -12h-40
c-6.62305 0 -12 5.37695 -12 12v40c0 6.62305 5.37695 12 12 12h40zM148 160c6.62305 0 12 -5.37695 12 -12v-40c0 -6.62305 -5.37695 -12 -12 -12h-40c-6.62305 0 -12 5.37695 -12 12v40c0 6.62305 5.37695 12 12 12h40zM308 96c11.0381 0 20 -8.96191 20 -20
s-8.96191 -20 -20 -20s-20 8.96191 -20 20s8.96191 20 20 20zM556 96c11.0381 0 20 -8.96191 20 -20s-8.96191 -20 -20 -20s-20 8.96191 -20 20s8.96191 20 20 20zM148 352c6.62305 0 12 -5.37695 12 -12v-40c0 -6.62305 -5.37695 -12 -12 -12h-40
c-6.62305 0 -12 5.37695 -12 12v40c0 6.62305 5.37695 12 12 12h40zM250.53 229.58l-8.68066 -37.5801h-37.8496c-6.62305 0 -12 5.37695 -12 12v40c0 6.62305 5.37695 12 12 12h40c6.03125 -0.0449219 10.999 -4.61328 11.6904 -10.4697
c-2.1416 -5.07031 -3.90234 -10.4844 -5.16016 -15.9502z" />
    </font>
</defs>
</svg>
