<?xml version="1.0" standalone="no"?>
<!DOCTYPE svg PUBLIC "-//W3C//DTD SVG 1.1//EN" "http://www.w3.org/Graphics/SVG/1.1/DTD/svg11.dtd" >
<svg xmlns="http://www.w3.org/2000/svg" xmlns:xlink="http://www.w3.org/1999/xlink" version="1.1">
<metadata>
Created by FontForge 20201107 at Wed Aug  4 12:36:51 2021
 By Robert Madole
Copyright (c) Font Awesome
</metadata>
<!-- Font Awesome Pro 5.15.4 by @fontawesome - https://fontawesome.com License - https://fontawesome.com/license (Commercial License) --><defs>
<font id="FontAwesome5Duotone-Solid" horiz-adv-x="512" >
  <font-face 
    font-family="Font Awesome 5 Duotone Solid"
    font-weight="900"
    font-stretch="normal"
    units-per-em="512"
    panose-1="2 0 5 3 0 0 0 0 0 0"
    ascent="448"
    descent="-64"
    bbox="-0.0791016 -64.0996 640.035 448.014"
    underline-thickness="25"
    underline-position="-50"
    unicode-range="U+0020-10F8FF"
  />
    <missing-glyph />
    <glyph glyph-name="video-primary" unicode="&#xf03d;" horiz-adv-x="576" 
d="M0 47.7998v288.4c0 26.3809 21.4189 47.7998 47.7998 47.7998h288.4c26.3809 0 47.7998 -21.4189 47.7998 -47.7998v-288.4c0 -26.3809 -21.4189 -47.7998 -47.7998 -47.7998h-288.4c-26.3809 0 -47.7998 21.4189 -47.7998 47.7998z" />
    <glyph glyph-name="leaf-primary" unicode="&#xf06c;" horiz-adv-x="576" 
d="M24.5 -64c-3.36426 0.00585938 -6.58691 0.707031 -9.5 1.9502c-8.79297 3.79199 -14.9541 12.542 -14.9541 22.7197c0 3.39355 0.714844 6.63477 1.9541 9.58008c1.08008 2.59961 27.2402 64.3301 83.8096 126.43c33.4707 36.75 70.75 66.0898 110.811 87.2207
c48.1631 25.4658 103.05 39.8906 161.279 39.8906c0.419922 0 1.1709 0.210938 1.59082 0.208984c13.3936 -0.269531 24.1846 -11.2275 24.1846 -24.6846c0 -13.458 -10.791 -24.416 -24.1846 -24.6855c-0.400391 0.00195312 -0.801758 0.00292969 -1.20215 0.00292969
c-49.7588 0 -96.9619 -12.4219 -138.198 -34.0527c-34.8994 -18.2803 -67.5996 -43.8896 -97.1797 -76.1201c-51.25 -55.8496 -75.5801 -112.83 -75.8203 -113.4c-3.70117 -8.83789 -12.4189 -15.041 -22.5898 -15.0596z" />
    <glyph glyph-name="comments-primary" unicode="&#xf086;" horiz-adv-x="576" 
d="M576 128c0 -34.2998 -14.0996 -66 -38 -92c13.4004 -30.2998 35.5 -54.2002 35.7998 -54.5c1.34863 -1.43262 2.1748 -3.36133 2.1748 -5.48145c0 -1.1416 -0.243164 -2.23535 -0.674805 -3.21875c-1.19824 -2.82324 -3.99805 -4.80566 -7.25684 -4.80566
c-0.015625 0 -0.0273438 0.00585938 -0.0429688 0.00585938c-36.5996 0 -66.9004 12.2998 -88.7002 25c-32.2002 -15.7998 -70.2998 -25 -111.3 -25c-86.2002 0 -160.2 40.4004 -191.7 97.9004c10.5029 -1.19043 20.8984 -1.82617 31.7002 -1.90039
c132.3 0 240 86.0996 240 192c0.000976562 0.163086 0.000976562 0.326172 0.000976562 0.490234c0 6.70312 -0.439453 13.1406 -1.30078 19.6094c75.7998 -23.8994 129.3 -81.1992 129.3 -148.1z" />
    <glyph glyph-name="suitcase-primary" unicode="&#xf0f2;" 
d="M336 416c26.4922 0 48 -21.5078 48 -48v-400h-256v400c0 26.4922 21.5078 48 48 48h160zM320 320v32h-128v-32h128zM464 320c26.4922 0 48 -21.5078 48 -48v-256c0 -26.4922 -21.5078 -48 -48 -48h-32v352h32zM0 272c0 26.4922 21.5078 48 48 48h32v-352h-32
c-26.4922 0 -48 21.5078 -48 48v256z" />
    <glyph glyph-name="quote-left-primary" unicode="&#xf10d;" 
d="M176 192c26.4922 0 48 -21.5078 48 -48v-128c0 -26.4922 -21.5078 -48 -48 -48h-128c-26.4922 0 -48 21.5078 -48 48v240c0 88.3066 71.6934 160 160 160h8.12012c13.1846 -0.0332031 23.8799 -10.7461 23.8799 -23.9385v-0.0615234v-48.1201
c-0.0332031 -13.1846 -10.7461 -23.8799 -23.9385 -23.8799h-0.0615234h-8c-35.3076 -0.0332031 -63.9668 -28.6924 -64 -64v-64h80z" />
    <glyph glyph-name="quote-right-primary" unicode="&#xf10e;" 
d="M464 416c26.4922 0 48 -21.5078 48 -48v-240c0 -88.3066 -71.6934 -160 -160 -160h-8.12012c-13.1846 0.0332031 -23.8799 10.7461 -23.8799 23.9385v0.0615234v48.1201c0.0332031 13.1846 10.7461 23.8799 23.9385 23.8799h0.0615234h8
c35.3076 0.0332031 63.9668 28.6924 64 64v64h-80c-26.4922 0 -48 21.5078 -48 48v128c0 26.4922 21.5078 48 48 48h128z" />
    <glyph glyph-name="archive-primary" unicode="&#xf187;" 
d="M512 384v-48c0 -8.83105 -7.16895 -16 -16 -16h-480c-8.83105 0 -16 7.16895 -16 16v48c0 17.6611 14.3389 32 32 32h448c17.6611 0 32 -14.3389 32 -32z" />
    <glyph glyph-name="handshake-primary" unicode="&#xf2b5;" horiz-adv-x="640" 
d="M544 319.8h96v-255.899h-64c-17.6611 0 -32 14.3379 -32 32v223.899zM592 95.9004c8.83105 0 16 7.16895 16 16c0 8.83008 -7.16895 16 -16 16s-16 -7.16992 -16 -16c0 -8.83105 7.16895 -16 16 -16zM483.9 109.3c7.21484 -5.88086 11.793 -14.8477 11.793 -24.8721
c0 -7.66699 -2.69727 -14.709 -7.19336 -20.2275l-9.5 -11.7002c-5.86914 -7.23438 -14.8398 -11.8291 -24.873 -11.8291c-7.62305 0 -14.6279 2.67188 -20.127 7.12891l-5.40039 4.40039l-31.3994 -38.6006c-6.81543 -8.39258 -17.2285 -13.7227 -28.8721 -13.7227
c-8.87891 0 -17.0342 3.12012 -23.4277 8.32324l-17.9004 15.5l-0.200195 -0.200195c-11.7383 -14.4346 -29.6592 -23.5977 -49.6963 -23.5977c-15.2695 0 -29.2969 5.35938 -40.3037 14.2979l-90.5 81.8994h-18.2998v223.9l54.7002 54.5996
c5.77832 5.80176 13.7744 9.39258 22.5996 9.40039h83.7998l-81.7998 -74.9004c-13.6299 -13.1035 -22.0645 -31.5078 -22.0645 -51.8896c0 -39.7383 32.2617 -72 72 -72c18.1289 0 34.7012 6.71484 47.3643 17.79l30 27.5z" />
    <glyph glyph-name="usd-square-primary" unicode="&#xf2e9;" horiz-adv-x="448" 
d="M248 64v-16c0 -8.83105 -7.16895 -16 -16 -16h-16c-8.83105 0 -16 7.16895 -16 16v16.2002c-17.0879 0.62207 -33.0908 6.13477 -46.4004 15.0996c-8.69922 5.90039 -10 18.1006 -2.2998 25.2002l12 11.2998c5.40039 5.10059 13.2998 5.40039 19.7002 1.60059
c5.78613 -3.41602 12.5312 -5.37598 19.7314 -5.37598c0.0429688 0 0.125 -0.0244141 0.168945 -0.0244141h45c11.2998 0 20.5 10.5 20.5 23.4004c0 10.5996 -6.30078 19.8994 -15.2002 22.6992l-72.2002 21.9004c-29 8.7998 -49.2002 37 -49.2002 68.5996
c0 39.3008 30.6006 71.3008 68.2002 71.4004v16c0 8.83105 7.16895 16 16 16h16c8.83105 0 16 -7.16895 16 -16v-16.2002c17.0879 -0.62207 33.0908 -6.13477 46.4004 -15.0996c8.69922 -5.90039 10 -18.1006 2.2998 -25.2002l-12 -11.2998
c-5.40039 -5.10059 -13.2998 -5.40039 -19.7002 -1.60059c-5.78613 3.41602 -12.5312 5.37598 -19.7314 5.37598c-0.0429688 0 -0.125 0.0244141 -0.168945 0.0244141h-45c-11.2998 0 -20.5 -10.5 -20.5 -23.4004c0 -10.5996 6.30078 -19.8994 15.2002 -22.6992l72 -21.9004
c29 -8.7998 49.2002 -37 49.2002 -68.5996c0.200195 -39.3008 -30.4004 -71.2002 -68 -71.4004z" />
    <glyph glyph-name="poo-primary" unicode="&#xf2fe;" 
d="M320 192c17.6611 0 32 -14.3389 32 -32s-14.3389 -32 -32 -32s-32 14.3389 -32 32s14.3389 32 32 32zM192 192c17.6611 0 32 -14.3389 32 -32s-14.3389 -32 -32 -32s-32 14.3389 -32 32s14.3389 32 32 32z" />
    <glyph glyph-name="phone-slash-primary" unicode="&#xf3dd;" horiz-adv-x="640" 
d="M3.37012 416.59l19.6299 25.2002c2.94043 3.7627 7.52051 6.18359 12.6611 6.18359c3.70312 0 7.12109 -1.27441 9.83887 -3.38379l588.3 -454.7c3.78906 -2.89746 6.23535 -7.46387 6.23535 -12.5977c0 -3.65137 -1.25684 -7.02051 -3.33496 -9.70215l-19.6006 -25.2998
c-2.94043 -3.7627 -7.51953 -6.18359 -12.6611 -6.18359c-3.70312 0 -7.12109 1.27441 -9.83887 3.38379l-588.43 454.7c-3.76367 2.91406 -6.1875 7.47656 -6.1875 12.6006c0 3.69141 1.27734 7.09668 3.3877 9.79883z" />
    <glyph glyph-name="hand-holding-box-primary" unicode="&#xf47b;" horiz-adv-x="576" 
d="M480 432v-224c0 -8.83105 -7.16895 -16 -16 -16h-352c-8.83105 0 -16 7.16895 -16 16v224c0 8.83105 7.16895 16 16 16h112v-128l64 32l64 -32v128h112c8.83105 0 16 -7.16895 16 -16z" />
    <glyph glyph-name="hand-receiving-primary" unicode="&#xf47c;" horiz-adv-x="640" 
d="M201.2 297.6c-5.74512 5.70898 -9.30371 13.6152 -9.30371 22.3467c0 8.73047 3.55859 16.6445 9.30371 22.3535l96.3994 96.4004c5.72852 5.74512 13.6504 9.30273 22.3965 9.30273s16.6758 -3.55762 22.4043 -9.30273l96.2998 -96.2998
c5.74512 -5.72852 9.30273 -13.6504 9.30273 -22.3965s-3.55762 -16.6758 -9.30273 -22.4043l-96.4004 -96.3994c-5.73145 -5.70215 -13.6299 -9.22754 -22.3447 -9.22754c-8.71582 0 -16.624 3.52539 -22.3555 9.22754z" />
    <glyph glyph-name="blanket-primary" unicode="&#xf498;" 
d="M512 352c0 0 -0.0703125 -179.79 -0.280273 -233.47c-3.4082 41.04 -37.8184 73.415 -79.7197 73.4697h-302.59c-70.6299 0 -129 -56.6201 -129.41 -127.25v-0.730469v287.98c0.0771484 52.9482 43.0518 95.9229 96 96h320c52.9482 -0.0771484 95.9229 -43.0518 96 -96z
" />
    <glyph glyph-name="box-alt-primary" unicode="&#xf49a;" horiz-adv-x="448" 
d="M446.7 288h-158.7l-32 128h104.9c0.0117188 0 0.0146484 0.00488281 0.0273438 0.00488281c14.1348 0 26.1406 -9.18359 30.3721 -21.9053l56.2998 -104.899c-0.399414 -0.5 -0.5 -0.700195 -0.899414 -1.2002zM160 288h-158.7
c-0.399414 0.5 -0.5 0.700195 -0.899414 1.2002l56.2998 104.899c4.23145 12.7217 16.2285 21.9004 30.3633 21.9004h0.0361328h104.9zM288 256h160v-256c0 -17.6611 -14.3389 -32 -32 -32h-384c-17.6611 0 -32 14.3389 -32 32v256h160v-80c0 -8.83105 7.16895 -16 16 -16
h96c8.83105 0 16 7.16895 16 16v80z" />
    <glyph glyph-name="box-fragile-primary" unicode="&#xf49b;" horiz-adv-x="448" 
d="M320 256c0 -47.5 -34.5996 -86.7002 -80 -94.4004v-97.5996h40c4.41504 0 8 -3.58496 8 -8v-16c0 -4.41504 -3.58496 -8 -8 -8h-112c-4.41504 0 -8 3.58496 -8 8v16c0 4.41504 3.58496 8 8 8h40v97.5996c-45.2979 7.56641 -79.9648 46.9756 -80 94.4004v80
c0 8.83105 7.16895 16 16 16h60.4004l24.5 -27.5996l-64 -32l91 -68.4004l-37 59.5996l64 32l-22.8008 36.4004h43.9004c8.83105 0 16 -7.16895 16 -16v-80z" />
    <glyph glyph-name="box-heart-primary" unicode="&#xf49d;" horiz-adv-x="448" 
d="M301.4 181c11.3525 -9.10449 18.6016 -23.0752 18.6016 -38.7461c0 -13.8809 -5.70801 -26.4385 -14.9023 -35.4541l-72.5996 -71.3994c-2.19727 -2.13477 -5.2002 -3.44922 -8.50293 -3.44922c-3.30176 0 -6.2998 1.31445 -8.49707 3.44922l-72.5996 71.3994
c-9.21484 9.00684 -14.9629 21.5557 -14.9629 35.4453c0 15.6768 7.29004 29.665 18.6621 38.7549c20.5 16.7002 51.1006 13.7002 70 -4.7998l7.40039 -7.2998l7.40039 7.2998c18.7998 18.5 49.3994 21.5 70 4.7998zM391.3 394.1l56.2998 -104.899
c-0.399414 -0.5 -0.5 -0.700195 -0.899414 -1.2002h-206.7v128h120.9c0.0117188 0 0.0146484 0.00488281 0.0273438 0.00488281c14.1348 0 26.1406 -9.18359 30.3721 -21.9053zM208 416v-128h-206.7c-0.399414 0.5 -0.5 0.700195 -0.899414 1.2002l56.2998 104.899
c4.23145 12.7217 16.2285 21.9004 30.3633 21.9004h0.0361328h120.9z" />
    <glyph glyph-name="box-up-primary" unicode="&#xf49f;" horiz-adv-x="448" 
d="M134.3 349l64 -80c1.09668 -1.36914 1.75488 -3.11133 1.75488 -5c0 -4.40039 -3.56055 -7.97559 -7.95508 -8h-32v-112c0 -8.83105 -7.16895 -16 -16 -16h-32c-8.83008 0 -16 7.16895 -16 16v112h-32.0996c-4.39453 0.0244141 -7.95215 3.60547 -7.95215 8.00586
c0 1.88867 0.65625 3.625 1.75195 4.99414l64 80c1.51855 1.74805 3.75391 2.85352 6.24805 2.85352c2.49512 0 4.7334 -1.10547 6.25195 -2.85352zM390.3 269c1.06445 -1.36523 1.70117 -3.08691 1.70117 -4.9502c0 -4.42676 -3.58105 -8.02344 -8.00098 -8.0498h-32v-112
c0 -8.83105 -7.16895 -16 -16 -16h-32c-8.83105 0 -16 7.16895 -16 16v112h-32c-4.39453 0.0244141 -7.95215 3.60547 -7.95215 8.00586c0 1.88867 0.65625 3.625 1.75195 4.99414l64 80c1.51855 1.74805 3.75391 2.85352 6.24805 2.85352
c2.49512 0 4.7334 -1.10547 6.25195 -2.85352z" />
    <glyph glyph-name="box-usd-primary" unicode="&#xf4a0;" horiz-adv-x="448" 
d="M208 416v-128h-206.7c-0.399414 0.5 -0.5 0.700195 -0.899414 1.2002l56.2998 104.899c4.23145 12.7217 16.2285 21.9004 30.3633 21.9004h0.0361328h120.9zM251.2 120.6c18.5996 -5.59961 31.5996 -23.3994 31.5996 -43.3994
c-0.0996094 -24.5 -19.2002 -44.5 -42.7998 -45.1006v-16.0996c0 -4.41504 -3.58496 -8 -8 -8h-16c-4.41504 0 -8 3.58496 -8 8v16.2998c-11.6943 0.607422 -22.5635 4.73438 -31.4004 11.2998c-1.87793 1.46484 -3.08203 3.74512 -3.08203 6.30957
c0 2.27734 0.953125 4.33301 2.48242 5.79102l11.7998 11.2002c1.44629 1.32422 3.38379 2.12891 5.49805 2.12891c1.70801 0 3.29297 -0.52832 4.60254 -1.42969c3.70996 -2.31543 8.11328 -3.67676 12.7998 -3.69922h28.0996c6.5 0 11.7998 5.89941 11.7998 13.1992
c0 6 -3.59961 11.2002 -8.7998 12.7002l-45 13.5c-18.5996 5.60059 -31.5996 23.4004 -31.5996 43.4004c0 24.5 19 44.3994 42.7002 45.0996v16.2002c0 4.41504 3.58398 8 8 8h16c4.41504 0 8 -3.58496 8 -8v-16.2998c11.6934 -0.607422 22.5635 -4.73438 31.3994 -11.2998
c1.87793 -1.46484 3.08301 -3.74512 3.08301 -6.30957c0 -2.27734 -0.953125 -4.33301 -2.48242 -5.79102l-11.7002 -11.2998c-1.44629 -1.32422 -3.38379 -2.12891 -5.49805 -2.12891c-1.70801 0 -3.29297 0.527344 -4.60254 1.42871
c-3.70996 2.31543 -8.11328 3.67773 -12.7998 3.7002h-28.0996c-6.5 0 -11.7998 -5.90039 -11.7998 -13.2002c0 -6 3.59961 -11.2002 8.7998 -12.7002zM391.3 394.1l56.2998 -104.899c-0.399414 -0.5 -0.5 -0.700195 -0.899414 -1.2002h-206.7v128h120.9
c0.0117188 0 0.0146484 0.00488281 0.0273438 0.00488281c14.1348 0 26.1406 -9.18359 30.3721 -21.9053z" />
    <glyph glyph-name="boxes-alt-primary" unicode="&#xf4a1;" horiz-adv-x="576" 
d="M176 224c-8.83105 0 -16 7.16895 -16 16v192c0 8.83105 7.16895 16 16 16h80v-88c0 -4.41504 3.58496 -8 8 -8h48c4.41504 0 8 3.58496 8 8v88h80c8.83105 0 16 -7.16895 16 -16v-192c0 -8.83105 -7.16895 -16 -16 -16h-224zM560 160c8.83105 0 16 -7.16895 16 -16v-192
c0 -8.83105 -7.16895 -16 -16 -16h-224c-8.83105 0 -16 7.16895 -16 16v192c0 8.83105 7.16895 16 16 16h80v-88c0 -4.41504 3.58496 -8 8 -8h48c4.41504 0 8 3.58496 8 8v88h80zM240 160c8.83105 0 16 -7.16895 16 -16v-192c0 -8.83105 -7.16895 -16 -16 -16h-224
c-8.83105 0 -16 7.16895 -16 16v192c0 8.83105 7.16895 16 16 16h80v-88c0 -4.41504 3.58496 -8 8 -8h48c4.41504 0 8 3.58496 8 8v88h80z" />
    <glyph glyph-name="comment-alt-check-primary" unicode="&#xf4a2;" 
d="M370.1 284.2l-131 -130c-1.98828 -1.97461 -4.72656 -3.19531 -7.74805 -3.19531c-3.07227 0 -5.85547 1.26172 -7.85156 3.29492l-75.7002 76.2998c-1.97461 1.98926 -3.19531 4.72754 -3.19531 7.74902c0 3.07227 1.26172 5.85449 3.2959 7.85156l26 25.7998
c1.98828 1.97461 4.72656 3.19531 7.74805 3.19531c3.07227 0 5.85547 -1.26172 7.85156 -3.29492l42.0996 -42.5l97.2002 96.3994c1.98926 1.97461 4.72754 3.19531 7.74902 3.19531c3.07227 0 5.85449 -1.26172 7.85156 -3.29492l25.7998 -26
c1.94531 -1.98438 3.14453 -4.70215 3.14453 -7.69727c0 -3.04785 -1.24023 -5.81055 -3.24512 -7.80273z" />
    <glyph glyph-name="comment-alt-dots-primary" unicode="&#xf4a3;" 
d="M384 272c17.6611 0 32 -14.3389 32 -32s-14.3389 -32 -32 -32s-32 14.3389 -32 32s14.3389 32 32 32zM256 272c17.6611 0 32 -14.3389 32 -32s-14.3389 -32 -32 -32s-32 14.3389 -32 32s14.3389 32 32 32zM128 272c17.6611 0 32 -14.3389 32 -32s-14.3389 -32 -32 -32
s-32 14.3389 -32 32s14.3389 32 32 32z" />
    <glyph glyph-name="comment-alt-edit-primary" unicode="&#xf4a4;" 
d="M161.4 191.4l96.2998 96.2998l54 -54l-96.2998 -96.2998l-48.2002 -5.40039c-0.361328 -0.0390625 -0.717773 -0.0693359 -1.08887 -0.0693359c-5.61328 0 -10.1699 4.55762 -10.1699 10.1709c0 0.371094 0.0195312 0.737305 0.0585938 1.09863zM366.1 316.7
c3.66211 -3.66016 5.92773 -8.72168 5.92773 -14.3027s-2.26562 -10.6377 -5.92773 -14.2979l-31.7998 -31.7998l-54 54l31.7998 31.7998c3.66016 3.66211 8.72168 5.92773 14.3027 5.92773s10.6377 -2.26562 14.2979 -5.92773z" />
    <glyph glyph-name="comment-alt-exclamation-primary" unicode="&#xf4a5;" 
d="M256 176c17.6611 0 32 -14.3389 32 -32s-14.3389 -32 -32 -32s-32 14.3389 -32 32s14.3389 32 32 32zM278.3 368c8.82129 -0.0107422 15.9814 -7.16016 15.9814 -15.9834c0 -0.545898 -0.0273438 -1.08496 -0.0810547 -1.61621l-12.7998 -128
c-0.811523 -8.06641 -7.62402 -14.3906 -15.9004 -14.4004h-19c-8.27637 0.00976562 -15.0889 6.33398 -15.9004 14.4004l-12.7998 128c-0.0488281 0.511719 -0.0722656 1.01465 -0.0722656 1.54004c0 8.83398 7.14941 16.0127 15.9727 16.0596h44.5996z" />
    <glyph glyph-name="comment-alt-lines-primary" unicode="&#xf4a6;" 
d="M280 208c4.41504 0 8 -3.58496 8 -8v-16c0 -4.41504 -3.58496 -8 -8 -8h-144c-4.41504 0 -8 3.58496 -8 8v16c0 4.41504 3.58496 8 8 8h144zM376 304c4.41504 0 8 -3.58496 8 -8v-16c0 -4.41504 -3.58496 -8 -8 -8h-240c-4.41504 0 -8 3.58496 -8 8v16
c0 4.41504 3.58496 8 8 8h240z" />
    <glyph glyph-name="comment-alt-minus-primary" unicode="&#xf4a7;" 
d="M144 248c0 8.83105 7.16895 16 16 16h192c8.83105 0 16 -7.16895 16 -16v-16c0 -8.83105 -7.16895 -16 -16 -16h-192c-8.83105 0 -16 7.16895 -16 16v16z" />
    <glyph glyph-name="comment-alt-plus-primary" unicode="&#xf4a8;" 
d="M144 248c0 8.83105 7.16895 16 16 16h72v72c0 8.83105 7.16895 16 16 16h16c8.83105 0 16 -7.16895 16 -16v-72h72c8.83105 0 16 -7.16895 16 -16v-16c0 -8.83105 -7.16895 -16 -16 -16h-72v-72c0 -8.83105 -7.16895 -16 -16 -16h-16c-8.83105 0 -16 7.16895 -16 16v72
h-72c-8.83105 0 -16 7.16895 -16 16v16z" />
    <glyph glyph-name="comment-alt-slash-primary" unicode="&#xf4a9;" horiz-adv-x="640" 
d="M636.67 -32.5195l-19.5996 -25.3105c-2.94043 -3.7627 -7.52051 -6.18359 -12.6621 -6.18359c-3.70215 0 -7.12012 1.27441 -9.83789 3.38379l-588.4 454.84c-3.76367 2.91699 -6.18848 7.48047 -6.18848 12.6064c0 3.69336 1.27734 7.09961 3.38867 9.80371
l19.6299 25.21c2.94043 3.7627 7.52051 6.18359 12.6611 6.18359c3.70312 0 7.12109 -1.27441 9.83887 -3.38379l588.3 -454.84c3.7793 -2.90039 6.2168 -7.46191 6.2168 -12.5889c0 -3.65918 -1.26172 -7.03613 -3.34668 -9.7207z" />
    <glyph glyph-name="comment-alt-smile-primary" unicode="&#xf4aa;" 
d="M320 261.2c-14.791 0 -26.7998 12.0088 -26.7998 26.7998s12.0088 26.7998 26.7998 26.7998s26.7998 -12.0088 26.7998 -26.7998s-12.0088 -26.7998 -26.7998 -26.7998zM192 261.2c-14.791 0 -26.7998 12.0088 -26.7998 26.7998s12.0088 26.7998 26.7998 26.7998
s26.7998 -12.0088 26.7998 -26.7998s-12.0088 -26.7998 -26.7998 -26.7998zM354.3 196.5c3.49121 -2.93555 5.69824 -7.34082 5.69824 -12.2549c0 -3.94336 -1.42969 -7.55469 -3.79785 -10.3447c-24.2734 -28.1436 -60.127 -45.9697 -100.171 -45.9697
c-40.043 0 -75.9561 17.8262 -100.229 45.9697c-1.95801 2.6543 -3.12207 5.95117 -3.12207 9.5c0 8.83008 7.16992 16 16 16c4.47168 0 8.51758 -1.83887 11.4219 -4.80078c18.3848 -21.2207 45.4814 -34.6543 75.7354 -34.6543c30.3008 0 57.4795 13.4746 75.8652 34.7549
c2.95508 3.43262 7.33789 5.59473 12.2178 5.59473c3.9541 0 7.57715 -1.42773 10.3818 -3.79492z" />
    <glyph glyph-name="comment-alt-times-primary" unicode="&#xf4ab;" 
d="M340.9 166.5l-11.3008 -11.2998c-2.90234 -2.87402 -6.89355 -4.65039 -11.2969 -4.65039s-8.40039 1.77637 -11.3027 4.65039l-51 50.8994l-50.9004 -50.8994c-2.90234 -2.87402 -6.89355 -4.65039 -11.2969 -4.65039s-8.40039 1.77637 -11.3027 4.65039
l-11.2998 11.2998c-2.87402 2.90234 -4.65039 6.89453 -4.65039 11.2969c0 4.40332 1.77637 8.40039 4.65039 11.3027l50.8994 50.9004l-50.8994 50.9004c-2.87402 2.90234 -4.65039 6.89355 -4.65039 11.2969s1.77637 8.40039 4.65039 11.3027l11.2998 11.2998
c2.90234 2.87402 6.89453 4.65039 11.2969 4.65039c4.40332 0 8.40039 -1.77637 11.3027 -4.65039l50.9004 -50.8994l50.9004 50.8994c2.90234 2.87402 6.89355 4.65039 11.2969 4.65039s8.40039 -1.77637 11.3027 -4.65039l11.2998 -11.2998
c2.87402 -2.90234 4.65039 -6.89453 4.65039 -11.2969c0 -4.40332 -1.77637 -8.40039 -4.65039 -11.3027l-50.8994 -50.9004l51 -50.9004c2.87402 -2.90234 4.64941 -6.89355 4.64941 -11.2969s-1.77539 -8.40039 -4.64941 -11.3027z" />
    <glyph glyph-name="comment-check-primary" unicode="&#xf4ac;" 
d="M370.1 252.2l-131 -130c-1.98828 -1.97461 -4.72656 -3.19531 -7.74805 -3.19531c-3.07227 0 -5.85547 1.26172 -7.85156 3.29492l-75.7002 76.2998c-1.97461 1.98926 -3.19531 4.72754 -3.19531 7.74902c0 3.07227 1.26172 5.85449 3.2959 7.85156l26 25.7998
c1.98828 1.97461 4.72656 3.19531 7.74805 3.19531c3.07227 0 5.85547 -1.26172 7.85156 -3.29492l42.0996 -42.5l97.2002 96.3994c1.98926 1.97461 4.72754 3.19531 7.74902 3.19531c3.07227 0 5.85449 -1.26172 7.85156 -3.29492l25.7998 -26
c1.94531 -1.98438 3.14453 -4.70215 3.14453 -7.69727c0 -3.04785 -1.24023 -5.81055 -3.24512 -7.80273z" />
    <glyph glyph-name="comment-dots-primary" unicode="&#xf4ad;" 
d="M128 240c17.6611 0 32 -14.3389 32 -32s-14.3389 -32 -32 -32s-32 14.3389 -32 32s14.3389 32 32 32zM256 240c17.6611 0 32 -14.3389 32 -32s-14.3389 -32 -32 -32s-32 14.3389 -32 32s14.3389 32 32 32zM384 240c17.6611 0 32 -14.3389 32 -32s-14.3389 -32 -32 -32
s-32 14.3389 -32 32s14.3389 32 32 32z" />
    <glyph glyph-name="comment-edit-primary" unicode="&#xf4ae;" 
d="M366.1 284.7c3.66211 -3.66016 5.92773 -8.72168 5.92773 -14.3027s-2.26562 -10.6377 -5.92773 -14.2979l-31.7998 -31.7998l-54 54l31.7998 31.7998c3.66016 3.66211 8.72168 5.92773 14.3027 5.92773s10.6377 -2.26562 14.2979 -5.92773zM161.4 159.4l96.2998 96.2998
l54 -54l-96.2998 -96.2998l-48.2002 -5.40039c-0.361328 -0.0390625 -0.717773 -0.0693359 -1.08887 -0.0693359c-5.61328 0 -10.1699 4.55762 -10.1699 10.1709c0 0.371094 0.0195312 0.737305 0.0585938 1.09863z" />
    <glyph glyph-name="comment-exclamation-primary" unicode="&#xf4af;" 
d="M256 144c17.6611 0 32 -14.3389 32 -32s-14.3389 -32 -32 -32s-32 14.3389 -32 32s14.3389 32 32 32zM278.3 336c8.82129 -0.0107422 15.9814 -7.16016 15.9814 -15.9834c0 -0.545898 -0.0273438 -1.08496 -0.0810547 -1.61621l-12.7998 -128
c-0.811523 -8.06641 -7.62402 -14.3906 -15.9004 -14.4004h-19c-8.27637 0.00976562 -15.0889 6.33398 -15.9004 14.4004l-12.7998 128c-0.0488281 0.511719 -0.0722656 1.01465 -0.0722656 1.54004c0 8.83398 7.14941 16.0127 15.9727 16.0596h44.5996z" />
    <glyph glyph-name="comment-lines-primary" unicode="&#xf4b0;" 
d="M376 272c4.41504 0 8 -3.58496 8 -8v-16c0 -4.41504 -3.58496 -8 -8 -8h-240c-4.41504 0 -8 3.58496 -8 8v16c0 4.41504 3.58496 8 8 8h240zM280 176c4.41504 0 8 -3.58496 8 -8v-16c0 -4.41504 -3.58496 -8 -8 -8h-144c-4.41504 0 -8 3.58496 -8 8v16
c0 4.41504 3.58496 8 8 8h144z" />
    <glyph glyph-name="comment-minus-primary" unicode="&#xf4b1;" 
d="M368 200c0 -8.83105 -7.16895 -16 -16 -16h-192c-8.83105 0 -16 7.16895 -16 16v16c0 8.83105 7.16895 16 16 16h192c8.83105 0 16 -7.16895 16 -16v-16z" />
    <glyph glyph-name="comment-plus-primary" unicode="&#xf4b2;" 
d="M368 200c0 -8.83105 -7.16895 -16 -16 -16h-72v-72c0 -8.83105 -7.16895 -16 -16 -16h-16c-8.83105 0 -16 7.16895 -16 16v72h-72c-8.83105 0 -16 7.16895 -16 16v16c0 8.83105 7.16895 16 16 16h72v72c0 8.83105 7.16895 16 16 16h16c8.83105 0 16 -7.16895 16 -16v-72
h72c8.83105 0 16 -7.16895 16 -16v-16z" />
    <glyph glyph-name="comment-slash-primary" unicode="&#xf4b3;" horiz-adv-x="640" 
d="M636.67 -32.5195l-19.5996 -25.3105c-2.94043 -3.7627 -7.52051 -6.18359 -12.6621 -6.18359c-3.70215 0 -7.12012 1.27441 -9.83789 3.38379l-588.4 454.84c-3.76367 2.91699 -6.18848 7.48047 -6.18848 12.6064c0 3.69336 1.27734 7.09961 3.38867 9.80371
l19.6299 25.21c2.94043 3.7627 7.52051 6.18359 12.6611 6.18359c3.70312 0 7.12109 -1.27441 9.83887 -3.38379l588.3 -454.84c3.7793 -2.90039 6.2168 -7.46191 6.2168 -12.5889c0 -3.65918 -1.26172 -7.03613 -3.34668 -9.7207z" />
    <glyph glyph-name="comment-smile-primary" unicode="&#xf4b4;" 
d="M320 229.2c-14.791 0 -26.7998 12.0088 -26.7998 26.7998s12.0088 26.7998 26.7998 26.7998s26.7998 -12.0088 26.7998 -26.7998s-12.0088 -26.7998 -26.7998 -26.7998zM192 229.2c-14.791 0 -26.7998 12.0088 -26.7998 26.7998s12.0088 26.7998 26.7998 26.7998
s26.7998 -12.0088 26.7998 -26.7998s-12.0088 -26.7998 -26.7998 -26.7998zM354.3 164.5c3.49121 -2.93555 5.69824 -7.34082 5.69824 -12.2549c0 -3.94336 -1.42969 -7.55469 -3.79785 -10.3447c-24.2734 -28.1436 -60.127 -45.9697 -100.171 -45.9697
c-40.043 0 -75.9561 17.8262 -100.229 45.9697c-2.83105 2.88672 -4.58398 6.85742 -4.58398 11.2168c0 8.83008 7.16895 16 16 16c5.28223 0 9.96973 -2.56543 12.8838 -6.51758c18.3848 -21.2207 45.4814 -34.6543 75.7354 -34.6543
c30.3008 0 57.4795 13.4746 75.8652 34.7549c2.95508 3.43262 7.33789 5.59473 12.2178 5.59473c3.9541 0 7.57715 -1.42773 10.3818 -3.79492z" />
    <glyph glyph-name="comment-times-primary" unicode="&#xf4b5;" 
d="M340.9 134.5l-11.3008 -11.2998c-2.90234 -2.87402 -6.89355 -4.65039 -11.2969 -4.65039s-8.40039 1.77637 -11.3027 4.65039l-51 50.8994l-50.9004 -50.8994c-2.90234 -2.87402 -6.89355 -4.65039 -11.2969 -4.65039s-8.40039 1.77637 -11.3027 4.65039
l-11.2998 11.2998c-2.87402 2.90234 -4.65039 6.89453 -4.65039 11.2969c0 4.40332 1.77637 8.40039 4.65039 11.3027l50.8994 50.9004l-50.8994 50.9004c-2.87402 2.90234 -4.65039 6.89355 -4.65039 11.2969s1.77637 8.40039 4.65039 11.3027l11.2998 11.2998
c2.90234 2.87402 6.89453 4.65039 11.2969 4.65039c4.40332 0 8.40039 -1.77637 11.3027 -4.65039l50.9004 -50.8994l50.9004 50.8994c2.90234 2.87402 6.89355 4.65039 11.2969 4.65039s8.40039 -1.77637 11.3027 -4.65039l11.2998 -11.2998
c2.87402 -2.90234 4.65039 -6.89453 4.65039 -11.2969c0 -4.40332 -1.77637 -8.40039 -4.65039 -11.3027l-50.8994 -50.9004l51 -50.9004c2.87402 -2.90234 4.64941 -6.89355 4.64941 -11.2969s-1.77539 -8.40039 -4.64941 -11.3027z" />
    <glyph glyph-name="comments-alt-primary" unicode="&#xf4b6;" horiz-adv-x="576" 
d="M576 224v-160c-0.0332031 -35.3076 -28.6924 -63.9668 -64 -64h-32v-54.2998v-0.0253906c0 -5.35352 -4.34668 -9.7002 -9.7002 -9.7002c-2.16992 0 -4.18262 0.719727 -5.7998 1.92578l-82.7998 62.0996h-125.7c-35.3076 0.0332031 -63.9668 28.6924 -64 64v64h160
c52.9453 0.0830078 95.917 43.0547 96 96v64h64c35.3076 -0.0332031 63.9668 -28.6924 64 -64z" />
    <glyph glyph-name="container-storage-primary" unicode="&#xf4b7;" horiz-adv-x="640" 
d="M624 32c8.83105 0 16 -7.16895 16 -16v-32c0 -8.83105 -7.16895 -16 -16 -16h-608c-8.83105 0 -16 7.16895 -16 16v32c0 8.83105 7.16895 16 16 16h608zM624 416c8.83105 0 16 -7.16895 16 -16v-32c0 -8.83105 -7.16895 -16 -16 -16h-608c-8.83105 0 -16 7.16895 -16 16
v32c0 8.83105 7.16895 16 16 16h608z" />
    <glyph glyph-name="couch-primary" unicode="&#xf4b8;" horiz-adv-x="640" 
d="M640 192c-0.0859375 -23.5713 -12.9062 -44.1133 -32 -55.0996v-120.9c0 -8.83105 -7.16895 -16 -16 -16h-64c-8.83105 0 -16 7.16895 -16 16v16h-384v-16c0 -8.83105 -7.16895 -16 -16 -16h-64c-8.83105 0 -16 7.16895 -16 16v120.9
c-19.1621 11.0098 -32.0791 31.6836 -32.0791 55.3506c0 35.207 28.583 63.79 63.79 63.79c0.0751953 0 0.213867 -0.0410156 0.289062 -0.0410156h32c17.6611 0 32 -14.3389 32 -32v-96h384v96c0 17.6611 14.3389 32 32 32h32c35.3076 -0.0332031 63.9668 -28.6924 64 -64z
" />
    <glyph glyph-name="donate-primary" unicode="&#xf4b9;" 
d="M218.4 228.1c-25.7002 7.7002 -43.7002 32.4004 -43.7002 60.1006c0.0996094 34 26.3994 61.5 59.0996 62.3994v16.8008c0 0.0136719 -0.000976562 0.0263672 -0.000976562 0.0400391c0 9.13965 7.4209 16.5596 16.5605 16.5596h0.0410156h11.0996
c0.0136719 0 0.0263672 0.000976562 0.0400391 0.000976562c9.13965 0 16.5596 -7.4209 16.5596 -16.5605v-0.0400391v-17c16.0117 -0.801758 30.8965 -6.42969 43 -15.4004c2.7959 -2.03906 4.60547 -5.33496 4.60547 -9.05664
c0 -3.1543 -1.30566 -6.00586 -3.40527 -8.04297l-16.2998 -15.5c-3.7998 -3.7002 -9.5 -3.80078 -14 -1c-5.08398 3.2168 -11.1387 5.10059 -17.5947 5.10059c-0.0683594 0 -0.136719 -0.000976562 -0.205078 -0.000976562h-38.9004
c-9 0 -16.2998 -8.2002 -16.2998 -18.2998c0 -8.2002 5 -15.5 12.0996 -17.6006l62.3008 -18.6992c25.6992 -7.7002 43.6992 -32.4004 43.6992 -60.1006c0 -34 -26.3994 -61.5 -59.0996 -62.3994v-16.8008c0 -0.0136719 0.000976562 -0.0263672 0.000976562 -0.0400391
c0 -9.13965 -7.4209 -16.5596 -16.5605 -16.5596h-0.0400391h-11.1006c-0.0136719 0 -0.0263672 -0.000976562 -0.0400391 -0.000976562c-9.13965 0 -16.5596 7.4209 -16.5596 16.5605v0.0400391v17c-16.0117 0.801758 -30.8955 6.42969 -43 15.4004
c-2.79492 2.03906 -4.60547 5.33496 -4.60547 9.05664c0 3.1543 1.30566 6.00586 3.40527 8.04297l16.2998 15.5c3.7998 3.7002 9.5 3.80078 14 1c5.08398 -3.2168 11.1387 -5.10059 17.5947 -5.10059c0.0683594 0 0.136719 0.000976562 0.205078 0.000976562h38.9004
c9 0 16.2998 8.2002 16.2998 18.2998c0 8.2002 -5 15.5 -12.0996 17.6006zM480 96c17.6611 0 32 -14.3389 32 -32v-96c0 -17.6611 -14.3389 -32 -32 -32h-448c-17.6611 0 -32 14.3389 -32 32v96c0 17.6611 14.3389 32 32 32h32.4004
c19.8301 -26.0654 44.4189 -47.668 73 -64h-63.8008c-5.2998 0 -9.59961 -3.59961 -9.59961 -8v-16c0 -4.40039 4.2998 -8 9.59961 -8h364.7c5.2998 0 9.60059 3.59961 9.60059 8v16c0 4.40039 -4.30078 8 -9.60059 8h-63.7998c28.5996 16.3047 53.1943 37.9131 73 64h32.5z
" />
    <glyph glyph-name="fragile-primary" unicode="&#xf4bb;" horiz-adv-x="288" 
d="M160 97.7002v-129.7h53.9004c24.5 0 33.0996 -32 20 -32h-179.79c-13.2002 0 -4.5 32 20 32h53.8896v129.7c-76.6904 8.7002 -134.59 77.5996 -127.39 157.6l16 178.101c0.614258 8.1377 7.41113 14.5762 15.6992 14.5996h85.6006l32.7998 -48.2998l-85.5 -56
l121.5 -119.7l-49.4004 104.3l85.5 56l-30.5996 63.7002h63.5c8.28906 -0.0234375 15.085 -6.46191 15.7002 -14.5996l16 -178.101c7.2002 -80 -50.7002 -148.8 -127.41 -157.6z" />
    <glyph glyph-name="hand-heart-primary" unicode="&#xf4bc;" horiz-adv-x="448" 
d="M194.57 149c20.5 16.7002 51.0996 13.7002 70 -4.7998l7.39941 -7.2998l7.40039 7.2998c18.7998 18.5 49.3994 21.5 70 4.7998c11.3525 -9.10449 18.627 -23.0889 18.627 -38.7598c0 -13.8809 -5.7334 -26.4248 -14.9268 -35.4404l-72.6006 -71.3994
c-2.19727 -2.13477 -5.19434 -3.44922 -8.49707 -3.44922s-6.30469 1.31445 -8.50293 3.44922l-72.5996 71.3994c-9.21484 9.00684 -14.9375 21.5703 -14.9375 35.46c0 15.6768 7.26465 29.6504 18.6377 38.7402z" />
    <glyph glyph-name="hand-holding-primary" unicode="&#xf4bd;" horiz-adv-x="576" 
 />
    <glyph glyph-name="hand-holding-heart-primary" unicode="&#xf4be;" horiz-adv-x="576" 
d="M404.1 430.48c35.4004 -30.6006 37.2002 -85.6006 5.60059 -118.801l-108.9 -114.199c-3.18066 -3.41797 -7.71777 -5.55664 -12.751 -5.55664c-5.03223 0 -9.56738 2.13867 -12.749 5.55664l-108.899 114.199c-31.6006 33.2002 -29.7002 88.2002 5.59961 118.801
c30.7998 26.6992 76.7002 21.8994 104.9 -7.80078l11.0996 -11.5996l11.2002 11.7002c28.2002 29.5996 74.0996 34.3994 104.899 7.7002z" />
    <glyph glyph-name="hand-holding-seedling-primary" unicode="&#xf4bf;" horiz-adv-x="576" 
d="M160 448c88.3066 0 160 -71.6934 160 -160v-112c0 -8.83105 -7.16895 -16 -16 -16h-32c-8.83105 0 -16 7.16895 -16 16v112c-88.3066 0 -160 71.6934 -160 160h64zM416 448h64c0 -77.5 -55.0996 -142 -128.2 -156.8c-0.688477 43.7383 -16.1885 84.1162 -41.5996 116
c28.2998 25.0996 65.0996 40.7998 105.8 40.7998z" />
    <glyph glyph-name="hands-primary" unicode="&#xf4c2;" horiz-adv-x="640" 
 />
    <glyph glyph-name="hands-heart-primary" unicode="&#xf4c3;" horiz-adv-x="640" 
d="M198.4 311.68c-31.6006 33.2002 -29.7002 88.2002 5.59961 118.801c30.7998 26.6992 76.7002 21.8994 104.9 -7.80078l11.0996 -11.5996l11.0996 11.7002c28.2002 29.5996 74.1006 34.3994 104.9 7.7002c35.4004 -30.6006 37.2002 -85.6006 5.7002 -118.801
l-108.9 -114.199c-3.18066 -3.41797 -7.71777 -5.55664 -12.751 -5.55664c-5.03223 0 -9.56738 2.13867 -12.749 5.55664z" />
    <glyph glyph-name="hands-helping-primary" unicode="&#xf4c4;" horiz-adv-x="640" 
d="M4.32031 90.6201c-2.7334 4.70508 -4.29883 10.1709 -4.29883 16c0 11.835 6.40039 22.1875 15.9785 27.7002l80 46.1992v47.3008c0.00585938 23.2939 12.4434 43.6494 31.0996 54.7998l64.8906 39v-121.62c0 -39.7383 32.2617 -72 72 -72c39.7373 0 72 32.2617 72 72v56
h152.01h0.0615234c13.2129 0 23.9395 -10.7275 23.9395 -23.9395c0 -0.0205078 -0.000976562 -0.0400391 -0.000976562 -0.0605469v-48v-0.0615234c0 -13.2129 -10.7275 -23.9395 -23.9395 -23.9395c-0.0205078 0 -0.0400391 0.000976562 -0.0605469 0.000976562h-8v-64
c0 -17.6611 -14.3389 -32 -32 -32h-16c-0.0332031 -35.3076 -28.6924 -63.9668 -64 -64h-136.59l-103.41 -59.6797c-4.69824 -2.70996 -10.1465 -4.26074 -15.9551 -4.26074c-11.833 0 -22.1875 6.38086 -27.7246 15.9404z" />
    <glyph glyph-name="hands-usd-primary" unicode="&#xf4c5;" horiz-adv-x="640" 
d="M246.7 351.4c-4.10059 32 19 59.3994 49.2998 63v17.5996c0 8.83105 7.16895 16 16 16h16c8.83105 0 16 -7.16895 16 -16v-17.7002c11.5801 -1.33691 22.4961 -5.41699 31.7998 -11.5c6.2002 -4.09961 6.7998 -13.0996 1.5 -18.3994l-17.5 -17.5
c-3.7002 -3.7002 -9.2998 -4.2002 -14.0996 -2c-3.14648 1.3916 -6.64453 2.18359 -10.2998 2.19922h-32.8008h-0.00195312c-4.6416 0 -8.41016 -3.76758 -8.41016 -8.40918c0 -3.84473 2.58691 -7.08887 6.1123 -8.09082l50.1006 -14.2998
c22.1992 -6.39941 40 -24.7002 42.8994 -47.7002c0.30957 -2.38281 0.46875 -4.81348 0.46875 -7.28027c0 -28.8096 -21.8086 -52.5244 -49.7686 -55.7197v-17.5996c0 -8.83105 -7.16895 -16 -16 -16h-16c-8.83105 0 -16 7.16895 -16 16v17.7002
c-11.5801 1.33691 -22.4961 5.41699 -31.7998 11.5c-6.2002 4.09961 -6.7998 13.0996 -1.5 18.3994l17.5 17.5c3.7002 3.7002 9.2998 4.2002 14.0996 2c3.14648 -1.3916 6.64453 -2.18359 10.2998 -2.19922h32.8008h0.00195312c4.6416 0 8.41016 3.76758 8.41016 8.40918
c0 3.84473 -2.58691 7.08887 -6.1123 8.09082l-50.1006 14.2998c-22.1992 6.39941 -40 24.7002 -42.8994 47.7002z" />
    <glyph glyph-name="handshake-alt-primary" unicode="&#xf4c6;" horiz-adv-x="640" 
d="M0 112.1v191.9c0 8.83105 7.16895 16 16 16h112l54.7002 54.5996c5.77832 5.80176 13.7744 9.39258 22.5996 9.40039h83.7998l-81.7998 -74.9004c-14.3477 -13.165 -23.3477 -32.0684 -23.3477 -53.0566c0 -18.7354 7.20312 -35.8291 18.9482 -48.6426
c14.8994 -16.3008 61.0996 -41.5 101.699 -4.40039l30 27.5l149.301 -121.2c7.21484 -5.88086 11.8252 -14.8369 11.8252 -24.8613c0 -7.66699 -2.72949 -14.7197 -7.22559 -20.2383l-9.5 -11.7002c-5.86914 -7.23438 -14.8291 -11.8613 -24.8623 -11.8613
c-7.62305 0 -14.6387 2.7041 -20.1377 7.16113l-5.40039 4.40039l-31.3994 -38.6006c-6.81543 -8.39258 -17.2158 -13.7607 -28.8604 -13.7607c-8.87793 0 -17.0459 3.1582 -23.4395 8.36133l-17.9004 15.5l-0.200195 -0.200195
c-11.7383 -14.4346 -29.6377 -23.6631 -49.6748 -23.6631c-15.2695 0 -29.3184 5.4248 -40.3252 14.3633l-90.5 81.8994h-130.3c-8.83105 0 -16 7.16992 -16 16z" />
    <glyph glyph-name="heart-square-primary" unicode="&#xf4c8;" horiz-adv-x="448" 
d="M106.2 286.5c31.2998 26.7002 77.8994 21.9004 106.6 -7.7002l11.2998 -11.5996l11.3008 11.5996c28.6992 29.6006 75.2998 34.4004 106.6 7.7002c35.7998 -30.5996 37.7002 -85.5996 5.5 -118.8l-110.6 -114.2c-3.25781 -3.42188 -7.85742 -5.55664 -12.9502 -5.55664
s-9.69238 2.13477 -12.9502 5.55664l-110.5 114.2c-32.0996 33.2002 -30.2002 88.2002 5.7002 118.8z" />
    <glyph glyph-name="leaf-heart-primary" unicode="&#xf4cb;" horiz-adv-x="576" 
d="M245.65 242.68c24 20 59.5996 16.4004 81.5996 -5.7998l8.59961 -8.7002l8.60059 8.7002c22 22.2002 57.7002 25.7998 81.5996 5.7998c13.3945 -11.1152 21.9307 -27.8867 21.9307 -46.6357c0 -16.5371 -6.67285 -31.5273 -17.4307 -42.4639l-84.7002 -85.5801
c-2.52637 -2.54883 -6.0293 -4.12793 -9.89844 -4.12793c-3.86816 0 -7.375 1.5791 -9.90137 4.12793l-84.7002 85.5996c-10.7852 10.9512 -17.4443 25.9775 -17.4443 42.5479c0 18.6855 8.43848 35.4033 21.7451 46.5322z" />
    <glyph glyph-name="loveseat-primary" unicode="&#xf4cc;" 
d="M512 192c-0.0859375 -23.5713 -12.9062 -44.1133 -32 -55.0996v-120.9c0 -8.83105 -7.16895 -16 -16 -16h-64c-8.83105 0 -16 7.16895 -16 16v16h-256v-16c0 -8.83105 -7.16895 -16 -16 -16h-64c-8.83105 0 -16 7.16895 -16 16v120.9
c-19.1621 11.0098 -32.0791 31.6836 -32.0791 55.3506c0 35.207 28.583 63.79 63.79 63.79c0.0751953 0 0.213867 -0.0410156 0.289062 -0.0410156h32c17.6611 0 32 -14.3389 32 -32v-96h256v96c0 17.6611 14.3389 32 32 32h32c35.3076 -0.0332031 63.9668 -28.6924 64 -64z
" />
    <glyph glyph-name="parachute-box-primary" unicode="&#xf4cd;" 
d="M0.0996094 273c9.10059 75.5 78.4004 132.3 158.301 158.7c-36.4004 -39.4004 -62.4004 -100.601 -62.4004 -175.7h-79.9004c-9.19922 0 -17.0996 7.90039 -16 17zM256 448c59.0996 0 128 -76.7998 128 -192h-256c0 115.2 68.9004 192 128 192zM511.9 273
c1.09961 -9.2002 -6.80078 -17 -16.1006 -17h-79.7998c0 75.0996 -26 136.3 -62.4004 175.7c79.9004 -26.2998 149.2 -83.1006 158.301 -158.7z" />
    <glyph glyph-name="people-carry-primary" unicode="&#xf4ce;" horiz-adv-x="640" 
d="M637.71 -20.0996c1.4707 -3.67285 2.31152 -7.68652 2.31152 -11.8809c0 -13.4648 -8.33496 -24.999 -20.1211 -29.7197c-3.61719 -1.47461 -7.58984 -2.2998 -11.7344 -2.2998h-0.166016c-13.457 0.00585938 -24.9707 8.31934 -29.6904 20.0996l-27.6895 69.2002
l2 18.2002l41.0898 46.4004zM46.3096 89.9004l41.1104 -46.4004l2 -18.2002l-27.71 -69.2002c-4.8457 -11.5176 -16.2139 -19.5762 -29.4844 -19.5762c-17.6611 0 -32 14.3389 -32 32c0 4.00586 0.737305 7.84082 2.08398 11.377zM196.62 252.1l11.2998 -33.8994
l16.0605 -10.2002v-75.5801c-0.410156 0.219727 -0.810547 0.44043 -1.19043 0.679688l-51.0996 32.5c-12.5908 9.2002 -20.4004 20.1006 -24.5 32.6006l-6.79004 20.3994l-17.6104 -70.2998l43.3096 -49c8.41797 -9.53906 14.0537 -21.6992 15.5908 -35l10.0996 -92.7998
c0.130859 -1.17578 0.165039 -2.33789 0.165039 -3.54883c0 -16.4502 -12.4639 -30.0127 -28.4551 -31.751c-1.20996 -0.100586 -2.30957 -0.200195 -3.5 -0.200195c-16.459 0.00878906 -30.0303 12.5049 -31.79 28.5l-10.0898 92.5996l-67.2002 75.9004
c-9.96582 11.2852 -16.0234 26.1006 -16.0234 42.3252c0 4.94141 0.561523 9.75391 1.62305 14.375l18.4004 80.2002c4.68457 20.2256 18.7979 36.8438 37.5 44.8994c7.58496 3.33203 16.0801 5.17285 24.8896 5.17285c11.3828 0 22.0508 -3.08887 31.21 -8.47266
c22.5078 -13.2305 39.7061 -34.2334 48.1006 -59.4004zM603.52 189.7c1.03906 -4.58691 1.57812 -9.35059 1.57812 -14.249c0 -16.2559 -6.03613 -31.1133 -15.9873 -42.4512l-67.1904 -75.9004l-10.1104 -92.5996c-1.75977 -15.9951 -15.3301 -28.4912 -31.79 -28.5
c-1.20996 0 -2.30957 0.0996094 -3.5 0.200195c-16.002 1.75977 -28.502 15.3076 -28.502 31.7754c0 1.19043 0.0654297 2.36719 0.192383 3.52441l10.0996 92.7998c1.53418 13.3066 7.17773 25.4688 15.6104 35l43.29 49l-17.5898 70.2998l-6.81055 -20.3994
c-4.09961 -12.6006 -11.8896 -23.4004 -24.5 -32.6006l-51.0996 -32.5c-0.379883 -0.239258 -0.790039 -0.469727 -1.20996 -0.699219v75.5996l16 10.2002l11.29 33.8994c8.45117 25.1387 25.6357 46.124 48.1104 59.4004c9.1582 5.38574 19.9395 8.48438 31.3232 8.48438
c8.80957 0 17.1914 -1.85059 24.7764 -5.18457c18.7021 -8.05566 32.8154 -24.6738 37.5 -44.8994z" />
    <glyph glyph-name="person-carry-primary" unicode="&#xf4cf;" horiz-adv-x="384" 
d="M0 -31.9004v129.601c0.599609 -0.5 48 -41.4004 64 -55.1006v-74.5c0 -17.6611 -14.3389 -32 -32 -32s-32 14.3389 -32 32zM128 160l-32 59.9004v-78.3008l44 -37.6992c11.1475 -9.59277 18.9463 -22.9766 21.5 -38.1006l14.0996 -92.5
c0.28418 -1.71387 0.401367 -3.44336 0.401367 -5.2373c0 -15.8564 -11.5576 -29.0352 -26.7012 -31.5625c-26.7002 -4.40039 -35.7998 20.5996 -36.7998 26.2998l-14.0996 92.5l-76 65.1006c-13.7148 11.7383 -22.3828 29.1533 -22.4004 48.5996v103
c0 26.4922 21.5078 48 48 48h28.7002c0.0253906 0 0.0107422 0.0654297 0.0371094 0.0654297c24.5596 0 45.8975 -13.9053 56.5625 -34.2656l33.2998 -61.7998h25.4004v-64h-64z" />
    <glyph glyph-name="person-dolly-primary" unicode="&#xf4d0;" 
d="M479 127.1c0.355469 -1.32422 0.541992 -2.70996 0.541992 -4.14648c0 -7.39258 -5.02441 -13.6211 -11.8418 -15.4531l-117 -31.2998c-1.3252 -0.355469 -2.70996 -0.541992 -4.14648 -0.541992c-7.39258 0 -13.6211 5.02441 -15.4541 11.8418l-31.3994 116.9
c-0.355469 1.32422 -0.541992 2.70996 -0.541992 4.14648c0 7.39258 5.02441 13.6211 11.8418 15.4531l117 31.2998c1.32422 0.355469 2.70996 0.541992 4.14648 0.541992c7.39258 0 13.6211 -5.02441 15.4531 -11.8418zM0 -31.9004v129.601
c0.5 -0.5 48 -41.4004 64 -55.1006v-74.5c0 -17.6611 -14.3389 -32 -32 -32s-32 14.3389 -32 32zM128 160.1l-32 59.9004v-78.2998l44 -37.7002c11.1475 -9.5918 18.9473 -22.9766 21.5 -38.0996l14.0996 -92.5c0.28418 -1.71387 0.401367 -3.44434 0.401367 -5.23828
c0 -15.8564 -11.5576 -29.0342 -26.7012 -31.5625c-26.7002 -4.39941 -35.7998 20.6006 -36.7998 26.3008l-14.0996 92.5l-76 65.0996c-13.7129 11.7412 -22.3799 29.1553 -22.4004 48.5996v103c0 26.4922 21.5078 48 48 48h28.7002
c0.0556641 0.000976562 0.0693359 0.0654297 0.125 0.0654297c24.5625 0 45.9043 -13.9043 56.5752 -34.2646l33.2998 -61.8008h39l17.0996 -64h-94.7998z" />
    <glyph glyph-name="person-dolly-empty-primary" unicode="&#xf4d1;" 
d="M0 -31.9004v129.601c0.5 -0.5 48 -41.4004 64 -55.1006v-74.5c0 -17.6611 -14.3389 -32 -32 -32s-32 14.3389 -32 32zM205.7 224.1l17.0996 -64h-94.7998l-32 59.9004v-78.2998l44 -37.7002c11.1475 -9.5918 18.9473 -22.9766 21.5 -38.0996l14.0996 -92.5
c0.28418 -1.71387 0.401367 -3.44434 0.401367 -5.23828c0 -15.8564 -11.5576 -29.0342 -26.7012 -31.5625c-26.7002 -4.39941 -35.7998 20.6006 -36.7998 26.3008l-14.0996 92.5l-76 65.0996c-13.7129 11.7412 -22.3799 29.1553 -22.4004 48.5996v103
c0 26.4922 21.5078 48 48 48h28.7002c0.0556641 0.000976562 0.0693359 0.0654297 0.125 0.0654297c24.5625 0 45.9043 -13.9043 56.5752 -34.2646l33.2998 -61.8008h39z" />
    <glyph glyph-name="phone-plus-primary" unicode="&#xf4d2;" 
d="M512 400c0 -256.5 -207.9 -464 -464 -464h-0.015625c-11.3848 0 -20.9268 7.95801 -23.3848 18.5996l-24 104c-0.386719 1.7207 -0.59082 3.50879 -0.59082 5.3457c0 9.96582 5.99609 18.5117 14.5908 22.2549l112 48c2.88574 1.22949 6.06055 1.91016 9.39258 1.91016
c7.49707 0 14.2051 -3.41797 18.6074 -8.81055l49.6006 -60.5996c77.915 36.7295 140.47 99.2842 177.2 177.2l-60.6006 49.5996c-5.39844 4.39062 -8.85059 11.0859 -8.85059 18.5811c0 3.33984 0.712891 6.53027 1.95117 9.41895l48 112
c3.72656 8.53809 12.248 14.5127 22.1533 14.5127c1.84961 0 3.625 -0.228516 5.35645 -0.623047l104 -24c10.6367 -2.46094 18.5762 -12.002 18.5762 -23.3828c0 -0.00292969 0.0136719 -0.00390625 0.0136719 -0.00683594z" />
    <glyph glyph-name="ramp-loading-primary" unicode="&#xf4d4;" horiz-adv-x="384" 
d="M292.4 119.2l80 -160c1.08887 -2.16113 1.70215 -4.60156 1.70215 -7.18457c0 -8.83105 -7.16992 -16 -16 -16c-0.00390625 0 0.000976562 -0.015625 -0.00292969 -0.015625h-332.199h-0.0117188c-8.83105 0 -16 7.16895 -16 16
c0 2.58301 0.62207 5.03906 1.71094 7.2002l80 160c2.6123 5.22461 8.01465 8.81543 14.249 8.81543c0.0205078 0 0.0302734 -0.015625 0.0517578 -0.015625h172.199h0.0625c6.23438 0 11.626 -3.5752 14.2383 -8.7998z" />
    <glyph glyph-name="ribbon-primary" unicode="&#xf4d6;" horiz-adv-x="448" 
d="M89.3398 219.31c-48.5996 53.8008 -13 113.5 -11.5 116l43.6006 73.2002c4.23828 7.19922 9.92969 13.29 16.7998 18c44 29.7002 130.7 27.6006 171.399 0c6.87012 -4.70996 12.5615 -10.8008 16.8008 -18l43.6992 -73.5
c8.69238 -14.6152 13.6865 -31.6826 13.6865 -49.9072c0 -25.1553 -9.46387 -48.251 -25.0859 -65.5928l-34.2002 -38l-79.0996 87.7002s52.6992 59 56 64.5996c-15.4004 8.40039 -40.2002 17.9004 -77.5 17.9004c-37.3008 0 -62.1006 -9.5 -77.5 -17.9004
c3.39941 -5.5 295.399 -330.1 295.399 -330.1c3.80859 -4.21484 6.12891 -9.79883 6.12891 -15.9209c0 -8.18555 -4.12207 -15.4053 -10.4287 -19.6787l-68.7998 -27.9004c-3.83691 -2.60156 -8.46484 -4.12207 -13.4453 -4.12207
c-7.0752 0 -13.4609 3.04492 -17.8545 7.92188z" />
    <glyph glyph-name="seedling-primary" unicode="&#xf4d8;" 
d="M288 128v-144c0 -8.83105 -7.16895 -16 -16 -16h-32c-8.83105 0 -16 7.16895 -16 16v144c-123.7 0 -224 100.3 -224 224h64c123.7 0 224 -100.3 224 -224z" />
    <glyph glyph-name="sign-primary" unicode="&#xf4d9;" 
d="M160 64v224h320v-224h-320z" />
    <glyph glyph-name="tape-primary" unicode="&#xf4db;" horiz-adv-x="640" 
d="M288 192c0 -35.3223 -28.6777 -64 -64 -64s-64 28.6777 -64 64s28.6777 64 64 64c35.3076 -0.0332031 63.9668 -28.6924 64 -64z" />
    <glyph glyph-name="truck-container-primary" unicode="&#xf4dc;" horiz-adv-x="640" 
d="M621.3 210.7c11.5566 -11.5576 18.7002 -27.5254 18.7002 -45.1445v-0.155273v-85.5c0 -8.83105 -7.16895 -16 -16 -16h-17.4697c0.00195312 -0.0410156 0.00292969 -0.078125 0.00292969 -0.119141c0 -0.0400391 -0.000976562 -0.0810547 -0.00292969 -0.121094
c-14.5049 28.6934 -44.1611 48.3857 -78.4834 48.3857c-34.2676 0 -63.9863 -19.6289 -78.5166 -48.2461h-41.5303v0.200195h-392c-8.83105 0 -16 7.16895 -16 16v15.9004c0 8.83008 7.16895 16 16 16h416v144c0 17.6611 14.3389 32 32 32h53.5
c0.0302734 0 0.0683594 0.0078125 0.0996094 0.0078125c17.6377 0 33.6191 -7.15039 45.2002 -18.708zM480 192h92.0996l-43.2998 43.2998c-2.89453 2.89355 -6.89062 4.68555 -11.2998 4.7002h-37.5v-48zM32 144c-17.6611 0 -32 14.3389 -32 32v208
c0 17.6611 14.3389 32 32 32h336c17.6611 0 32 -14.3389 32 -32v-208c0 -17.6611 -14.3389 -32 -32 -32h-336zM304 368v-176h32v176h-32zM224 368v-176h32v176h-32zM144 368v-176h32v176h-32zM64 368v-176h32v176h-32z" />
    <glyph glyph-name="truck-couch-primary" unicode="&#xf4dd;" horiz-adv-x="640" 
d="M384 448h256v-331.44c-23.4131 26.6621 -57.7236 43.4404 -95.96 43.4404h-0.0400391c-67 0 -122.09 -51.7002 -127.55 -117.3c-0.0498047 0.339844 -0.0498047 0.669922 -0.0498047 1l-393.7 -107.4c-0.666016 -0.179688 -1.36328 -0.274414 -2.08594 -0.274414
c-3.67969 0 -6.78223 2.48926 -7.71387 5.875l-12.6006 46.2998c-0.179688 0.666016 -0.274414 1.36328 -0.274414 2.08594c0 3.67969 2.48926 6.78223 5.875 7.71387l346.1 94.4004v323.6c0 17.6611 14.3389 32 32 32z" />
    <glyph glyph-name="truck-loading-primary" unicode="&#xf4de;" horiz-adv-x="640" 
d="M384 448h256v-331.44c-23.4131 26.6621 -57.7236 43.4404 -95.96 43.4404h-0.0400391c-67 0 -122.09 -51.7002 -127.55 -117.3c-0.0498047 0.339844 -0.0498047 0.669922 -0.0498047 1l-393.7 -107.4c-0.666016 -0.179688 -1.36328 -0.274414 -2.08594 -0.274414
c-3.67969 0 -6.78223 2.48926 -7.71387 5.875l-12.6006 46.2998c-0.179688 0.666016 -0.274414 1.36328 -0.274414 2.08594c0 3.67969 2.48926 6.78223 5.875 7.71387l346.1 94.4004v323.6c0 17.6611 14.3389 32 32 32zM175.8 222l-61.7998 -16.5l-24.7998 92.7002
l61.7998 16.5z" />
    <glyph glyph-name="truck-moving-primary" unicode="&#xf4df;" horiz-adv-x="640" 
d="M621.3 210.7c11.5566 -11.5479 18.7002 -27.5098 18.7002 -45.1211v-0.0791016v-85.5c0 -8.83105 -7.16895 -16 -16 -16h-5.49023c-13.1904 37.2715 -48.7041 64.002 -90.4707 64.002s-77.3389 -26.7305 -90.5293 -64.002h-123
c-13.1943 37.2637 -48.6758 64.0547 -90.4365 64.0547c-33.4229 0 -62.8789 -17.1162 -80.0732 -43.0547c-17.1641 25.958 -46.5977 42.9844 -80.0186 42.9844c-24.5762 0 -47.0059 -9.2666 -63.9814 -24.4941v280.51c0 17.6611 14.3389 32 32 32h416
c17.6611 0 32 -14.3389 32 -32v-96.0996h37.5c0.0302734 0 0.0683594 0.0078125 0.0996094 0.0078125c17.6377 0 33.6191 -7.15039 45.2002 -18.708zM480 192h92.0996l-43.2998 43.2998c-2.87793 2.90332 -6.87012 4.7002 -11.2773 4.7002h-0.0224609h-37.5v-48z" />
    <glyph glyph-name="truck-ramp-primary" unicode="&#xf4e0;" horiz-adv-x="640" 
d="M384 448h256v-331.44c-23.4131 26.6621 -57.7236 43.4404 -95.96 43.4404h-0.0400391c-67 0 -122.09 -51.7002 -127.55 -117.3c-0.0498047 0.339844 -0.0498047 0.669922 -0.0498047 1l-393.7 -107.4c-0.666016 -0.179688 -1.36328 -0.274414 -2.08594 -0.274414
c-3.67969 0 -6.78223 2.48926 -7.71387 5.875l-12.6006 46.2998c-0.179688 0.666016 -0.274414 1.36328 -0.274414 2.08594c0 3.67969 2.48926 6.78223 5.875 7.71387l346.1 94.4004v323.6c0 17.6611 14.3389 32 32 32z" />
    <glyph glyph-name="video-plus-primary" unicode="&#xf4e1;" horiz-adv-x="576" 
d="M336.2 384c26.3809 0 47.7998 -21.4189 47.7998 -47.7998v-288.4c0 -26.3809 -21.4189 -47.7998 -47.7998 -47.7998h-288.4c-26.3809 0 -47.7998 21.4189 -47.7998 47.7998v288.4c0 26.3809 21.4189 47.7998 47.7998 47.7998h288.4zM304 184v16
c0 8.83105 -7.16895 16 -16 16h-72v72c0 8.83105 -7.16895 16 -16 16h-16c-8.83105 0 -16 -7.16895 -16 -16v-72h-72c-8.83105 0 -16 -7.16895 -16 -16v-16c0 -8.83105 7.16895 -16 16 -16h72v-72c0 -8.83105 7.16895 -16 16 -16h16c8.83105 0 16 7.16895 16 16v72h72
c8.83105 0 16 7.16895 16 16z" />
    <glyph glyph-name="video-slash-primary" unicode="&#xf4e2;" horiz-adv-x="640" 
d="M3.37012 416.63l19.6299 25.2002c2.94043 3.7627 7.52051 6.18359 12.6611 6.18359c3.70312 0 7.12109 -1.27441 9.83887 -3.38379l588.3 -454.7c3.78125 -2.89746 6.22168 -7.45996 6.22168 -12.5869c0 -3.70215 -1.29102 -7.11426 -3.42188 -9.8125l-19.5996 -25.2998
c-2.94043 -3.76367 -7.52051 -6.18457 -12.6611 -6.18457c-3.70312 0 -7.12109 1.27539 -9.83887 3.38379l-588.33 454.801c-3.76367 2.91406 -6.1875 7.47656 -6.1875 12.6006c0 3.69141 1.27734 7.09668 3.3877 9.79883z" />
    <glyph glyph-name="video-secondary" unicode="&#x10f03d;" horiz-adv-x="576" 
d="M525.6 37.7998l-109.6 75.5v157.4l109.6 75.5996c21.3008 14.6006 50.4004 -0.399414 50.4004 -25.7998v-256.9c0 -25.5 -29.2002 -40.3994 -50.4004 -25.7998z" />
    <glyph glyph-name="leaf-secondary" unicode="&#x10f06c;" horiz-adv-x="576" 
d="M576 293.69c0 -172.381 -110.51 -313.171 -267.53 -324.57c-6.79102 -0.723633 -13.4922 -1.09863 -20.4697 -1.12012v0.549805h-0.25h-0.0908203c-70.6514 0 -132.302 38.1064 -165.539 95.0703l0.769531 0.849609c29.5801 32.2305 62.2803 57.8398 97.1807 76.1201
c41.2363 21.6309 88.1582 33.8711 137.917 33.8711c0.400391 0 1.08203 0.180664 1.48242 0.178711c13.3945 0.269531 24.1846 11.2275 24.1846 24.6855s-10.79 24.415 -24.1846 24.6846c-0.443359 0.00195312 -0.886719 0.00292969 -1.33008 0.00292969
c-58.2295 0 -113.446 -14.6357 -161.609 -40.1025c-33.7705 -17.8105 -65.5605 -41.4805 -94.7705 -70.4902c-3.75195 14.9727 -5.74414 30.6396 -5.74414 46.7676c0 0.0595703 -0.015625 0.0322266 -0.015625 0.0927734c0 105.89 85.8604 191.72 191.77 191.72h80.2305
c63.4004 0 118.91 33.5898 149.91 87.4902c6.7002 11.7998 22.71 11.2998 28.3096 -1.2002c18.9805 -42.4102 29.7803 -94.4004 29.7803 -144.6z" />
    <glyph glyph-name="comments-secondary" unicode="&#x10f086;" horiz-adv-x="576" 
d="M208 96c-41 0 -79.0996 9.2998 -111.3 25c-21.7998 -12.7002 -52.1006 -25 -88.7002 -25h-0.0810547c-3.25 0 -6.03516 1.97852 -7.21875 4.7998c-0.431641 0.983398 -0.670898 2.06934 -0.670898 3.20996c0 2.12109 0.822266 4.05762 2.1709 5.49023
c0.299805 0.299805 22.3994 24.2998 35.7998 54.5c-23.9004 26.0996 -38 57.7002 -38 92c0 88.4004 93.0996 160 208 160s208 -71.5996 208 -160s-93.0996 -160 -208 -160z" />
    <glyph glyph-name="suitcase-secondary" unicode="&#x10f0f2;" 
d="M80 -32v352h48v-352h-48zM384 320h48v-352h-48v352z" />
    <glyph glyph-name="quote-left-secondary" unicode="&#x10f10d;" 
d="M464 192c26.4922 0 48 -21.5078 48 -48v-128c0 -26.4922 -21.5078 -48 -48 -48h-128c-26.4922 0 -48 21.5078 -48 48v240c0 88.3066 71.6934 160 160 160h8.12012c13.1846 -0.0332031 23.8799 -10.7461 23.8799 -23.9385v-0.0615234v-48.1201
c-0.0332031 -13.1846 -10.7461 -23.8799 -23.9385 -23.8799h-0.0615234h-8c-35.3076 -0.0332031 -63.9668 -28.6924 -64 -64v-64h80z" />
    <glyph glyph-name="quote-right-secondary" unicode="&#x10f10e;" 
d="M176 416c26.4922 0 48 -21.5078 48 -48v-240c0 -88.3066 -71.6934 -160 -160 -160h-8.12012c-13.1846 0.0332031 -23.8799 10.7461 -23.8799 23.9385v0.0615234v48.1201c0.0332031 13.1846 10.7461 23.8799 23.9385 23.8799h0.0615234h8
c35.3076 0.0332031 63.9668 28.6924 64 64v64h-80c-26.4922 0 -48 21.5078 -48 48v128c0 26.4922 21.5078 48 48 48h128z" />
    <glyph glyph-name="archive-secondary" unicode="&#x10f187;" 
d="M32 288h448v-288c0 -17.6611 -14.3389 -32 -32 -32h-384c-17.6611 0 -32 14.3389 -32 32v288zM320 204v8c0 6.62305 -5.37695 12 -12 12h-104c-6.62305 0 -12 -5.37695 -12 -12v-8c0 -6.62305 5.37695 -12 12 -12h104c6.62305 0 12 5.37695 12 12z" />
    <glyph glyph-name="handshake-secondary" unicode="&#x10f2b5;" horiz-adv-x="640" 
d="M0 64v255.8h96v-223.8c0 -17.6611 -14.3389 -32 -32 -32h-64zM48 127.9c-8.83105 0 -16 -7.16992 -16 -16c0 -8.83105 7.16895 -16 16 -16s16 7.16895 16 16c0 8.83008 -7.16895 16 -16 16zM457.3 374.6l54.6006 -54.5996v-193.5
c-2.44922 2.78418 -5.05371 5.32227 -7.90039 7.7002l-145.6 118.2l26.0996 23.8994c3.04883 2.91406 4.93652 7.01758 4.93652 11.5635c0 8.83008 -7.16895 16 -16 16c-4.03418 0 -7.7207 -1.49609 -10.5361 -3.96289l-79.9004 -73.2002
c-0.0996094 -0.100586 -0.299805 -0.100586 -0.400391 -0.200195c-16.6992 -14.9004 -43.3994 -11.2002 -56.0996 2.7002c-6.52344 7.08691 -10.5254 16.5586 -10.5254 26.9404c0 11.4619 4.8584 21.7979 12.625 29.0596
c0.100586 0.0996094 0.200195 0.299805 0.300781 0.399414l98.2998 90c5.69141 5.21191 13.2832 8.39746 21.5996 8.40039h85.9004c0.0136719 0 0.0302734 0.00488281 0.0439453 0.00488281c8.81641 0 16.7979 -3.59766 22.5557 -9.40527z" />
    <glyph glyph-name="usd-square-secondary" unicode="&#x10f2e9;" horiz-adv-x="448" 
d="M400 416c26.4922 0 48 -21.5078 48 -48v-352c0 -26.4922 -21.5078 -48 -48 -48h-352c-26.4922 0 -48 21.5078 -48 48v352c0 26.4922 21.5078 48 48 48h352zM248 64c37.5996 0.200195 68.2002 32.0996 68 71.4004c0 31.5996 -20.2002 59.7998 -49.2002 68.5996
l-72 21.9004c-8.89941 2.7998 -15.2002 12.0996 -15.2002 22.6992c0 12.9004 9.2002 23.4004 20.5 23.4004h45c0.0439453 0 0.125977 -0.0244141 0.168945 -0.0244141c7.2002 0 13.9453 -1.95996 19.7314 -5.37598c6.40039 -3.7998 14.2998 -3.5 19.7002 1.60059l12 11.2998
c7.7002 7.09961 6.39941 19.2998 -2.2998 25.2002c-13.3096 8.96484 -29.3125 14.4775 -46.4004 15.0996v16.2002c0 8.83105 -7.16895 16 -16 16h-16c-8.83105 0 -16 -7.16895 -16 -16v-16c-37.5996 -0.0996094 -68.2002 -32.0996 -68.2002 -71.4004
c0 -31.5996 20.2002 -59.7998 49.2002 -68.5996l72.2002 -21.9004c8.89941 -2.7998 15.2002 -12.0996 15.2002 -22.6992c0 -12.9004 -9.2002 -23.4004 -20.5 -23.4004h-45c-0.0439453 0 -0.125977 0.0244141 -0.168945 0.0244141
c-7.2002 0 -13.9453 1.95996 -19.7314 5.37598c-6.40039 3.7998 -14.2998 3.5 -19.7002 -1.60059l-12 -11.2998c-7.7002 -7.09961 -6.39941 -19.2998 2.2998 -25.2002c13.3096 -8.96484 29.3125 -14.4775 46.4004 -15.0996v-16.2002c0 -8.83105 7.16895 -16 16 -16h16
c8.83105 0 16 7.16895 16 16v16z" />
    <glyph glyph-name="poo-secondary" unicode="&#x10f2fe;" 
d="M451.4 78.9004c34.2686 -5.47363 60.5605 -35.2002 60.5605 -71c0 -39.6826 -32.2178 -71.9004 -71.9004 -71.9004h-0.0605469h-368c-0.0205078 0 0.0302734 0.00195312 0.00976562 0.00195312c-39.6826 0 -71.9004 32.2178 -71.9004 71.9004
c0 35.7998 26.2217 65.5244 60.4902 70.998c-17.3965 13.1016 -28.5977 33.8945 -28.5977 57.3301c0 39.6104 32.1592 71.7695 71.7695 71.7695h0.228516h14.0996c-13.5518 11.6924 -22.1064 28.9746 -22.1064 48.2607c0 35.1787 28.5605 63.7402 63.7393 63.7402
c0.0898438 0 0.178711 -0.000976562 0.267578 -0.000976562h16c0.0722656 0 0.0976562 0.0722656 0.169922 0.0722656c44.0371 0 79.79 35.752 79.79 79.79c0 17.4053 -5.58594 33.5166 -15.0596 46.6377c4.92676 0.899414 9.93652 1.41016 15.0996 1.5
c52.9834 0 96 -43.0166 96 -96c-0.106445 -11.2207 -2.20312 -22.0332 -5.90039 -32h5.90039c0.0888672 0 0.207031 0.0146484 0.295898 0.0146484c35.1787 0 63.7402 -28.5605 63.7402 -63.7402c0 -19.2852 -8.58398 -36.582 -22.1357 -48.2744h14.0996
c0.0761719 0 0.208008 0.0341797 0.28418 0.0341797c39.6104 0 71.7695 -32.1592 71.7695 -71.7705c0 -23.4346 -11.2568 -44.2617 -28.6533 -57.3633zM320 192c-17.6611 0 -32 -14.3389 -32 -32s14.3389 -32 32 -32s32 14.3389 32 32s-14.3389 32 -32 32zM192 192
c-17.6611 0 -32 -14.3389 -32 -32s14.3389 -32 32 -32s32 14.3389 32 32s-14.3389 32 -32 32zM351.5 53c0.317383 0.873047 0.495117 1.81836 0.495117 2.80078c0 4.52539 -3.6748 8.2002 -8.2002 8.2002c-0.0322266 0 -0.0634766 -0.000976562 -0.0947266 -0.000976562
h-175.4c-0.03125 0 -0.0585938 -0.00292969 -0.0898438 -0.00292969c-4.52637 0 -8.2002 -3.67383 -8.2002 -8.19922c0 -0.982422 0.172852 -1.9248 0.490234 -2.79785c10.5 -27.9004 58.5 -53 95.5 -53s85 25.0996 95.5 53z" />
    <glyph glyph-name="phone-slash-secondary" unicode="&#x10f3dd;" horiz-adv-x="640" 
d="M377.91 321.49l48 112c3.72559 8.54199 12.249 14.5186 22.1562 14.5186c1.8457 0 3.61621 -0.226562 5.34375 -0.619141l104 -24c10.6367 -2.46094 18.5762 -12.002 18.5762 -23.3828c0 -0.00292969 0.0136719 -0.00390625 0.0136719 -0.00683594
c0 -0.248047 0.000976562 -0.49707 0.000976562 -0.745117c0 -108.383 -37.5811 -208.42 -100.171 -287.255l-76 58.7598c17.9375 22.4199 33.2451 46.9141 45.5996 73.1699l-60.5996 49.6006c-5.40039 4.39062 -8.85254 11.0869 -8.85254 18.582
c0 3.32422 0.706055 6.5 1.93262 9.37793zM268.17 66.5898c11.5 5.41016 22.7002 11.6006 33.5996 18.1006l80 -61.8008c-75.7432 -54.5264 -169.08 -86.8994 -269.448 -86.8994h-0.250977c-0.00585938 0 -0.00976562 0.0136719 -0.0146484 0.0136719
c-11.3848 0 -20.9277 7.94336 -23.3857 18.5859l-24 104c-0.40918 1.75488 -0.644531 3.55859 -0.644531 5.4375c0 9.88965 5.99414 18.3896 14.5449 22.0625l112 48c2.88477 1.22949 6.06836 1.9375 9.40137 1.9375c7.49707 0 14.1963 -3.44531 18.5986 -8.83691z" />
    <glyph glyph-name="hand-holding-box-secondary" unicode="&#x10f47b;" horiz-adv-x="576" 
d="M352 320l-64 32l-64 -32v128h128v-128zM565.3 119.9c6.58594 -5.86328 10.7461 -14.3877 10.7461 -23.8896c0 -10.1182 -4.70605 -19.1445 -12.0459 -25.0107l-151.2 -121c-10.9551 -8.74512 -24.8828 -14 -39.9775 -14h-0.0224609h-356.8c-8.83105 0 -16 7.16895 -16 16
v96c0 8.83105 7.16895 16 16 16h55.4004l46.5 37.7002c20.2197 16.4062 46.0596 26.2871 74.0996 26.2998h160c0.0205078 0 0.0390625 0.0292969 0.0595703 0.0292969c17.6611 0 32 -14.3389 32 -32c0 -1.85059 -0.157227 -3.66406 -0.459961 -5.42969
c-2.59961 -15.6992 -17.3994 -26.5996 -33.2998 -26.5996h-78.2998c-8.83105 0 -16 -7.16895 -16 -16s7.16895 -16 16 -16h118.3c0.0566406 0 0.154297 0.0234375 0.210938 0.0234375c15.0488 0 28.8867 5.23242 39.7891 13.9766l92.4004 73.9004
c12.3994 10 30.7998 10.6992 42.5996 0z" />
    <glyph glyph-name="hand-receiving-secondary" unicode="&#x10f47c;" horiz-adv-x="640" 
d="M204.8 217.6l57.6006 -76.7998c16.0234 -21.3877 25.585 -48.0479 25.5996 -76.7998v-112c0 -8.83105 -7.16895 -16 -16 -16h-131.7c-0.0566406 -0.000976562 -0.108398 0.00390625 -0.165039 0.00390625c-7.24023 0 -13.3398 4.91992 -15.1348 11.5957
c-1.98047 7.95801 -5.58301 15.3623 -10.4004 21.7002l-104.1 134.3c-6.55957 8.21582 -10.5 18.6602 -10.5 29.9805v0.0195312v218.4c0 17.6611 14.3389 32 32 32s32 -14.3389 32 -32v-148.4l89.7998 -107.8c2.91699 -3.55762 7.34277 -5.82129 12.2979 -5.82129
c4.41895 0 8.41992 1.80664 11.3027 4.72168l12.7998 12.7998c2.89746 2.89648 4.68066 6.91309 4.68066 11.3291c0 3.58789 -1.18359 6.90137 -3.18066 9.57129l-38.1006 50.7998c-4.00879 5.34473 -6.41504 12.0371 -6.41504 19.2266c0 17.6611 14.3389 32 32 32
c10.4727 0 19.7764 -5.04102 25.6152 -12.8271zM608 384c17.6611 0 32 -14.3389 32 -32v-218.4c0 -0.00683594 -0.0185547 -0.046875 -0.0185547 -0.0537109c0 -11.3203 -3.92188 -21.7305 -10.4814 -29.9463l-104.1 -134.3
c-4.81738 -6.33789 -8.41992 -13.7422 -10.4004 -21.7002c-1.82812 -6.67969 -7.94238 -11.5996 -15.1992 -11.5996h-0.100586h-131.7c-8.83105 0 -16 7.16895 -16 16v112c0.0146484 28.752 9.57617 55.4121 25.5996 76.7998l57.6006 76.7998
c5.83887 7.78613 15.1123 12.7734 25.585 12.7734c17.6611 0 32 -14.3389 32 -32c0 -7.18945 -2.37598 -13.8281 -6.38477 -19.1729l-38.1006 -50.7998c-1.99707 -2.66992 -3.19043 -5.99902 -3.19043 -9.58691c0 -4.41602 1.79297 -8.41699 4.69043 -11.3135
l12.7998 -12.7998c2.90234 -2.87012 6.88965 -4.65137 11.2891 -4.65137c4.94141 0 9.36426 2.23633 12.3115 5.75098l89.7998 107.8v148.4c0 17.6611 14.3389 32 32 32z" />
    <glyph glyph-name="blanket-secondary" unicode="&#x10f498;" 
d="M512 -16v-32c0 -8.83105 -7.16895 -16 -16 -16h-368c-70.8301 0 -128.41 57.8301 -128 128.75c0.410156 70.6299 58.7803 127.25 129.41 127.25h302.59c44.1621 -0.0478516 80.001 -35.917 80.001 -80.0898c0 -0.238281 0.000976562 -0.462891 -0.000976562 -0.700195
c-0.429688 -44 -37 -79.21 -81 -79.21h-303h-0.0126953c-17.6611 0 -32 14.3389 -32 32c0 0.305664 0.00390625 0.595703 0.0126953 0.900391c0.480469 17.4297 15.2197 31.0996 32.6602 31.0996h303.34h0.0205078c8.83105 0 16 7.16895 16 16
c0 0.275391 -0.00683594 0.538086 -0.0205078 0.80957c-0.419922 8.59082 -7.83984 15.1904 -16.4404 15.1904h-303.56c-35.3311 -0.0292969 -64.0059 -28.7227 -64.0059 -64.0596c0 -0.320312 0.000976562 -0.62207 0.00585938 -0.94043
c0.530273 -35.1201 29.8398 -63 65 -63h367c8.83105 0 16 -7.16895 16 -16z" />
    <glyph glyph-name="box-alt-secondary" unicode="&#x10f49a;" horiz-adv-x="448" 
d="M256 416l32 -128v-112c0 -8.83105 -7.16895 -16 -16 -16h-96c-8.83105 0 -16 7.16895 -16 16v112l32 128h64z" />
    <glyph glyph-name="box-fragile-secondary" unicode="&#x10f49b;" horiz-adv-x="448" 
d="M416 416c17.6611 0 32 -14.3389 32 -32v-384c0 -17.6611 -14.3389 -32 -32 -32h-384c-17.6611 0 -32 14.3389 -32 32v384c0 17.6611 14.3389 32 32 32h384zM320 256v80c0 8.83105 -7.16895 16 -16 16h-160c-8.83105 0 -16 -7.16895 -16 -16v-80
c0.0351562 -47.4248 34.7021 -86.834 80 -94.4004v-97.5996h-40c-4.41504 0 -8 -3.58496 -8 -8v-16c0 -4.41504 3.58496 -8 8 -8h112c4.41504 0 8 3.58496 8 8v16c0 4.41504 -3.58496 8 -8 8h-40v97.5996c45.4004 7.7002 80 46.9004 80 94.4004z" />
    <glyph glyph-name="box-heart-secondary" unicode="&#x10f49d;" horiz-adv-x="448" 
d="M0 256h448v-256c0 -17.6611 -14.3389 -32 -32 -32h-384c-17.6611 0 -32 14.3389 -32 32v256zM305.1 106.8c9.19434 9.01562 14.9277 21.5596 14.9277 35.4404c0 15.6709 -7.27441 29.6553 -18.627 38.7598c-20.6006 16.7002 -51.2002 13.7002 -70 -4.7998
l-7.40039 -7.2998l-7.40039 7.2998c-18.8994 18.5 -49.5 21.5 -70 4.7998c-11.3721 -9.08984 -18.6367 -23.0635 -18.6367 -38.7402c0 -13.8896 5.72266 -26.4531 14.9375 -35.46l72.5996 -71.3994c2.19727 -2.13477 5.2002 -3.44922 8.50293 -3.44922
c3.30176 0 6.2998 1.31445 8.49707 3.44922z" />
    <glyph glyph-name="box-up-secondary" unicode="&#x10f49f;" horiz-adv-x="448" 
d="M416 416c17.6611 0 32 -14.3389 32 -32v-384c0 -17.6611 -14.3389 -32 -32 -32h-384c-17.6611 0 -32 14.3389 -32 32v384c0 17.6611 14.3389 32 32 32h384zM57.7998 269c-1.0957 -1.36914 -1.75391 -3.11133 -1.75391 -5c0 -4.40039 3.55957 -7.97559 7.9541 -8h32.0996
v-112c0 -8.83105 7.16992 -16 16 -16h32c8.83105 0 16 7.16895 16 16v112h32c4.39453 0.0244141 7.95215 3.60547 7.95215 8.00586c0 1.88867 -0.655273 3.625 -1.75195 4.99414l-64 80c-1.51855 1.74805 -3.75293 2.85352 -6.24805 2.85352
s-4.7334 -1.10547 -6.25195 -2.85352zM384 40v16c0 4.41504 -3.58496 8 -8 8h-304c-4.41504 0 -8 -3.58496 -8 -8v-16c0 -4.41504 3.58496 -8 8 -8h304c4.41504 0 8 3.58496 8 8zM384 256c4.41992 0.0263672 7.99805 3.62988 7.99805 8.05566
c0 1.86328 -0.633789 3.5791 -1.69824 4.94434l-64 80c-1.51855 1.74805 -3.75293 2.85352 -6.24805 2.85352s-4.7334 -1.10547 -6.25195 -2.85352l-64 -80c-1.0957 -1.36914 -1.75391 -3.11133 -1.75391 -5c0 -4.40039 3.55957 -7.97559 7.9541 -8h32v-112
c0 -8.83105 7.16895 -16 16 -16h32c8.83105 0 16 7.16895 16 16v112h32z" />
    <glyph glyph-name="box-usd-secondary" unicode="&#x10f4a0;" horiz-adv-x="448" 
d="M0 256h448v-256c0 -17.6611 -14.3389 -32 -32 -32h-384c-17.6611 0 -32 14.3389 -32 32v256zM240 32.0996c23.5996 0.600586 42.7002 20.6006 42.7998 45.1006c0 20 -13 37.7998 -31.5996 43.3994l-45 13.5c-5.2002 1.5 -8.7998 6.7002 -8.7998 12.7002
c0 7.2998 5.2998 13.2002 11.7998 13.2002h28.0996c4.68652 -0.0224609 9.08984 -1.38477 12.7998 -3.7002c1.30957 -0.901367 2.90625 -1.43262 4.61328 -1.43262c2.11426 0 4.04102 0.808594 5.4873 2.13281l11.7002 11.2998
c1.5293 1.45801 2.48633 3.51074 2.48633 5.78809c0 2.56348 -1.20898 4.84766 -3.08691 6.3125c-8.83594 6.56543 -19.7061 10.6924 -31.3994 11.2998v16.2998c0 4.41504 -3.58496 8 -8 8h-16c-4.41602 0 -8 -3.58496 -8 -8v-16.2002
c-23.7002 -0.700195 -42.7002 -20.5996 -42.7002 -45.0996c0 -20 13 -37.7998 31.5996 -43.4004l45 -13.5c5.2002 -1.5 8.7998 -6.7002 8.7998 -12.7002c0 -7.2998 -5.2998 -13.1992 -11.7998 -13.1992h-28.0996c-4.68652 0.0224609 -9.08984 1.38379 -12.7998 3.69922
c-1.30957 0.901367 -2.90625 1.43359 -4.61328 1.43359c-2.11426 0 -4.04102 -0.808594 -5.4873 -2.13281l-11.7998 -11.2002c-1.5293 -1.45801 -2.4873 -3.51074 -2.4873 -5.78809c0 -2.56348 1.20898 -4.84766 3.08691 -6.3125
c8.83691 -6.56543 19.7061 -10.6924 31.4004 -11.2998v-16.2998c0 -4.41504 3.58496 -8 8 -8h16c4.41504 0 8 3.58496 8 8v16.0996z" />
    <glyph glyph-name="boxes-alt-secondary" unicode="&#x10f4a1;" horiz-adv-x="576" 
d="M320 448v-88c0 -4.41504 -3.58496 -8 -8 -8h-48c-4.41504 0 -8 3.58496 -8 8v88h64zM480 160v-88c0 -4.41504 -3.58496 -8 -8 -8h-48c-4.41504 0 -8 3.58496 -8 8v88h64zM160 160v-88c0 -4.41504 -3.58496 -8 -8 -8h-48c-4.41504 0 -8 3.58496 -8 8v88h64z" />
    <glyph glyph-name="comment-alt-check-secondary" unicode="&#x10f4a2;" 
d="M448 448c35.3076 -0.0332031 63.9668 -28.6924 64 -64v-288c-0.0332031 -35.3076 -28.6924 -63.9668 -64 -64h-144l-124.9 -93.7002c-1.98633 -1.45801 -4.44824 -2.32617 -7.09961 -2.32617c-6.62305 0 -12 5.37695 -12 12v0.0263672v84h-96
c-35.3076 0.0332031 -63.9668 28.6924 -64 64v288c0.0332031 35.3076 28.6924 63.9668 64 64h384zM370.1 284.2c2.00488 1.99219 3.24512 4.75488 3.24512 7.80273c0 2.99512 -1.19922 5.71289 -3.14453 7.69727l-25.7998 26
c-1.99707 2.0332 -4.7793 3.29492 -7.85156 3.29492c-3.02148 0 -5.75977 -1.2207 -7.74902 -3.19531l-97.2002 -96.3994l-42.0996 42.5c-1.99609 2.0332 -4.7793 3.29492 -7.85156 3.29492c-3.02148 0 -5.75977 -1.2207 -7.74805 -3.19531l-26 -25.7998
c-2.03418 -1.99707 -3.2959 -4.7793 -3.2959 -7.85156c0 -3.02148 1.2207 -5.75977 3.19531 -7.74902l75.7002 -76.2998c1.99609 -2.0332 4.7793 -3.29492 7.85156 -3.29492c3.02148 0 5.75977 1.2207 7.74805 3.19531z" />
    <glyph glyph-name="comment-alt-dots-secondary" unicode="&#x10f4a3;" 
d="M448 448c35.3076 -0.0332031 63.9668 -28.6924 64 -64v-288c-0.0332031 -35.3076 -28.6924 -63.9668 -64 -64h-144l-124.9 -93.7002c-1.98633 -1.45801 -4.44824 -2.32617 -7.09961 -2.32617c-6.62305 0 -12 5.37695 -12 12v0.0263672v84h-96
c-35.3076 0.0332031 -63.9668 28.6924 -64 64v288c0.0332031 35.3076 28.6924 63.9668 64 64h384zM128 208c17.6611 0 32 14.3389 32 32s-14.3389 32 -32 32s-32 -14.3389 -32 -32s14.3389 -32 32 -32zM256 208c17.6611 0 32 14.3389 32 32s-14.3389 32 -32 32
s-32 -14.3389 -32 -32s14.3389 -32 32 -32zM384 208c17.6611 0 32 14.3389 32 32s-14.3389 32 -32 32s-32 -14.3389 -32 -32s14.3389 -32 32 -32z" />
    <glyph glyph-name="comment-alt-edit-secondary" unicode="&#x10f4a4;" 
d="M448 448c35.3076 -0.0332031 63.9668 -28.6924 64 -64v-288c-0.0332031 -35.3076 -28.6924 -63.9668 -64 -64h-144l-124.9 -93.7002c-1.98633 -1.45801 -4.44824 -2.32617 -7.09961 -2.32617c-6.62305 0 -12 5.37695 -12 12v0.0263672v84h-96
c-35.3076 0.0332031 -63.9668 28.6924 -64 64v288c0.0332031 35.3076 28.6924 63.9668 64 64h384zM215.4 137.4l96.2998 96.2998l-54 54l-96.2998 -96.2998l-5.40039 -48.2002c-0.0390625 -0.361328 -0.0693359 -0.717773 -0.0693359 -1.08887
c0 -5.61328 4.55762 -10.1699 10.1709 -10.1699c0.371094 0 0.737305 0.0195312 1.09863 0.0585938zM366.1 288.1c3.66211 3.66016 5.92773 8.72168 5.92773 14.3027s-2.26562 10.6377 -5.92773 14.2979l-25.3994 25.3994
c-3.66016 3.66211 -8.72168 5.92773 -14.3027 5.92773s-10.6377 -2.26562 -14.2979 -5.92773l-31.7998 -31.7998l54 -54z" />
    <glyph glyph-name="comment-alt-exclamation-secondary" unicode="&#x10f4a5;" 
d="M448 448c35.3076 -0.0332031 63.9668 -28.6924 64 -64v-288c-0.0332031 -35.3076 -28.6924 -63.9668 -64 -64h-144l-124.9 -93.7002c-1.98633 -1.45801 -4.44824 -2.32617 -7.09961 -2.32617c-6.62305 0 -12 5.37695 -12 12v0.0263672v84h-96
c-35.3076 0.0332031 -63.9668 28.6924 -64 64v288c0.0332031 35.3076 28.6924 63.9668 64 64h384zM256 112c17.6611 0 32 14.3389 32 32s-14.3389 32 -32 32s-32 -14.3389 -32 -32s14.3389 -32 32 -32zM294.2 350.4c0.0537109 0.53125 0.0800781 1.05371 0.0800781 1.59961
c0 8.82422 -7.15918 15.9893 -15.9805 16h-44.5996c-8.82324 -0.046875 -15.9746 -7.20898 -15.9746 -16.0439c0 -0.524414 0.0253906 -1.04395 0.0742188 -1.55566l12.7998 -128c0.811523 -8.06641 7.62402 -14.3906 15.9004 -14.4004h19
c8.27637 0.00976562 15.0889 6.33398 15.9004 14.4004z" />
    <glyph glyph-name="comment-alt-lines-secondary" unicode="&#x10f4a6;" 
d="M448 448c35.3076 -0.0332031 63.9668 -28.6924 64 -64v-288c-0.0332031 -35.3076 -28.6924 -63.9668 -64 -64h-144l-124.9 -93.7002c-1.98633 -1.45801 -4.44824 -2.32617 -7.09961 -2.32617c-6.62305 0 -12 5.37695 -12 12v0.0263672v84h-96
c-35.3076 0.0332031 -63.9668 28.6924 -64 64v288c0.0332031 35.3076 28.6924 63.9668 64 64h384zM288 184v16c0 4.41504 -3.58496 8 -8 8h-144c-4.41504 0 -8 -3.58496 -8 -8v-16c0 -4.41504 3.58496 -8 8 -8h144c4.41504 0 8 3.58496 8 8zM384 280v16
c0 4.41504 -3.58496 8 -8 8h-240c-4.41504 0 -8 -3.58496 -8 -8v-16c0 -4.41504 3.58496 -8 8 -8h240c4.41504 0 8 3.58496 8 8z" />
    <glyph glyph-name="comment-alt-minus-secondary" unicode="&#x10f4a7;" 
d="M448 448c35.3076 -0.0332031 63.9668 -28.6924 64 -64v-288c-0.0332031 -35.3076 -28.6924 -63.9668 -64 -64h-144l-124.9 -93.7002c-1.98633 -1.45801 -4.44824 -2.32617 -7.09961 -2.32617c-6.62305 0 -12 5.37695 -12 12v0.0263672v84h-96
c-35.3076 0.0332031 -63.9668 28.6924 -64 64v288c0.0332031 35.3076 28.6924 63.9668 64 64h384zM368 232v16c0 8.83105 -7.16895 16 -16 16h-192c-8.83105 0 -16 -7.16895 -16 -16v-16c0 -8.83105 7.16895 -16 16 -16h192c8.83105 0 16 7.16895 16 16z" />
    <glyph glyph-name="comment-alt-plus-secondary" unicode="&#x10f4a8;" 
d="M448 448c35.3076 -0.0332031 63.9668 -28.6924 64 -64v-288c-0.0332031 -35.3076 -28.6924 -63.9668 -64 -64h-144l-124.9 -93.7002c-1.98633 -1.45801 -4.44824 -2.32617 -7.09961 -2.32617c-6.62305 0 -12 5.37695 -12 12v0.0263672v84h-96
c-35.3076 0.0332031 -63.9668 28.6924 -64 64v288c0.0332031 35.3076 28.6924 63.9668 64 64h384zM368 232v16c0 8.83105 -7.16895 16 -16 16h-72v72c0 8.83105 -7.16895 16 -16 16h-16c-8.83105 0 -16 -7.16895 -16 -16v-72h-72c-8.83105 0 -16 -7.16895 -16 -16v-16
c0 -8.83105 7.16895 -16 16 -16h72v-72c0 -8.83105 7.16895 -16 16 -16h16c8.83105 0 16 7.16895 16 16v72h72c8.83105 0 16 7.16895 16 16z" />
    <glyph glyph-name="comment-alt-slash-secondary" unicode="&#x10f4a9;" horiz-adv-x="640" 
d="M75.8896 421.11c11.5996 16.2969 30.6045 26.8789 52.1104 26.8896h384c35.3076 -0.0332031 63.9668 -28.6924 64 -64v-288v-0.0429688c0 -18.168 -7.59863 -34.5703 -19.8096 -46.1875zM64 96v172.5l306 -236.5h-2l-124.9 -93.7002
c-1.98633 -1.45801 -4.44824 -2.32617 -7.09961 -2.32617c-6.62305 0 -12 5.37695 -12 12v0.0263672v84h-96c-35.3076 0.0332031 -63.9668 28.6924 -64 64z" />
    <glyph glyph-name="comment-alt-smile-secondary" unicode="&#x10f4aa;" 
d="M448 448c35.3076 -0.0332031 63.9668 -28.6924 64 -64v-288c-0.0332031 -35.3076 -28.6924 -63.9668 -64 -64h-144l-124.9 -93.7002c-1.98633 -1.45801 -4.44824 -2.32617 -7.09961 -2.32617c-6.62305 0 -12 5.37695 -12 12v0.0263672v84h-96
c-35.3076 0.0332031 -63.9668 28.6924 -64 64v288c0.0332031 35.3076 28.6924 63.9668 64 64h384zM320 314.8c-14.791 0 -26.7998 -12.0088 -26.7998 -26.7998s12.0088 -26.7998 26.7998 -26.7998s26.7998 12.0088 26.7998 26.7998s-12.0088 26.7998 -26.7998 26.7998z
M192 314.8c-14.791 0 -26.7998 -12.0088 -26.7998 -26.7998s12.0088 -26.7998 26.7998 -26.7998s26.7998 12.0088 26.7998 26.7998s-12.0088 26.7998 -26.7998 26.7998zM356.2 173.9c2.32129 2.78613 3.72656 6.3877 3.72656 10.2939
c0 8.86914 -7.20117 16.0703 -16.0703 16.0703c-4.85449 0 -9.20898 -2.15723 -12.1562 -5.56445c-18.3857 -21.2803 -45.5205 -34.7549 -75.8223 -34.7549c-30.2529 0 -57.3936 13.4336 -75.7783 34.6543c-2.9043 2.96191 -6.94336 4.7832 -11.415 4.7832
c-8.83105 0 -16 -7.16895 -16 -16c0 -3.54785 1.15723 -6.82812 3.11523 -9.48242c24.2734 -28.1436 60.127 -45.9697 100.171 -45.9697c40.043 0 75.9561 17.8262 100.229 45.9697z" />
    <glyph glyph-name="comment-alt-times-secondary" unicode="&#x10f4ab;" 
d="M448 448c35.3076 -0.0332031 63.9668 -28.6924 64 -64v-288c-0.0332031 -35.3076 -28.6924 -63.9668 -64 -64h-144l-124.9 -93.7002c-1.98633 -1.45801 -4.44824 -2.32617 -7.09961 -2.32617c-6.62305 0 -12 5.37695 -12 12v0.0263672v84h-96
c-35.3076 0.0332031 -63.9668 28.6924 -64 64v288c0.0332031 35.3076 28.6924 63.9668 64 64h384zM340.9 166.5c2.87402 2.90234 4.64941 6.89941 4.64941 11.3027s-1.77539 8.39453 -4.64941 11.2969l-51 50.9004l50.8994 50.9004
c2.87402 2.90234 4.65039 6.89941 4.65039 11.3027c0 4.40234 -1.77637 8.39453 -4.65039 11.2969l-11.2998 11.2998c-2.90234 2.87402 -6.89941 4.65039 -11.3027 4.65039s-8.39453 -1.77637 -11.2969 -4.65039l-50.9004 -50.8994l-50.9004 50.8994
c-2.90234 2.87402 -6.89941 4.65039 -11.3027 4.65039c-4.40234 0 -8.39453 -1.77637 -11.2969 -4.65039l-11.2998 -11.2998c-2.87402 -2.90234 -4.65039 -6.89941 -4.65039 -11.3027s1.77637 -8.39453 4.65039 -11.2969l50.8994 -50.9004l-50.8994 -50.9004
c-2.87402 -2.90234 -4.65039 -6.89941 -4.65039 -11.3027c0 -4.40234 1.77637 -8.39453 4.65039 -11.2969l11.2998 -11.2998c2.90234 -2.87402 6.89941 -4.65039 11.3027 -4.65039s8.39453 1.77637 11.2969 4.65039l50.9004 50.8994l51 -50.8994
c2.90234 -2.87402 6.89941 -4.65039 11.3027 -4.65039s8.39453 1.77637 11.2969 4.65039z" />
    <glyph glyph-name="comment-check-secondary" unicode="&#x10f4ac;" 
d="M256 416c141.4 0 256 -93.0996 256 -208s-114.6 -208 -256 -208c-0.12207 0 -0.370117 0.107422 -0.492188 0.107422c-37.6064 0 -73.6328 6.82129 -106.908 19.293c-24.5996 -19.6006 -74.2998 -51.4004 -140.6 -51.4004
c-0.0273438 0 -0.0488281 -0.00585938 -0.0761719 -0.00585938c-3.25 0 -6.04004 1.98438 -7.22363 4.80566c-0.431641 0.983398 -0.674805 2.07715 -0.674805 3.21875c0 2.12012 0.826172 4.04883 2.1748 5.48145c0.5 0.5 42.2998 45.4004 54.7998 95.7998
c-35.5996 35.7002 -57 81.1006 -57 130.7c0 114.9 114.6 208 256 208zM370.1 252.2c2.00488 1.99219 3.24512 4.75488 3.24512 7.80273c0 2.99512 -1.19922 5.71289 -3.14453 7.69727l-25.7998 26c-1.99707 2.0332 -4.7793 3.29492 -7.85156 3.29492
c-3.02148 0 -5.75977 -1.2207 -7.74902 -3.19531l-97.2002 -96.3994l-42.0996 42.5c-1.99609 2.0332 -4.7793 3.29492 -7.85156 3.29492c-3.02148 0 -5.75977 -1.2207 -7.74805 -3.19531l-26 -25.7998c-2.03418 -1.99707 -3.2959 -4.7793 -3.2959 -7.85156
c0 -3.02148 1.2207 -5.75977 3.19531 -7.74902l75.7002 -76.2998c1.99609 -2.0332 4.7793 -3.29492 7.85156 -3.29492c3.02148 0 5.75977 1.2207 7.74805 3.19531z" />
    <glyph glyph-name="comment-dots-secondary" unicode="&#x10f4ad;" 
d="M256 416c141.4 0 256 -93.0996 256 -208s-114.6 -208 -256 -208c-0.12207 0 -0.370117 0.107422 -0.492188 0.107422c-37.6064 0 -73.6328 6.82129 -106.908 19.293c-24.5996 -19.6006 -74.2998 -51.4004 -140.6 -51.4004
c-0.0273438 0 -0.0488281 -0.00585938 -0.0761719 -0.00585938c-3.25 0 -6.04004 1.98438 -7.22363 4.80566c-0.431641 0.983398 -0.674805 2.07715 -0.674805 3.21875c0 2.12012 0.826172 4.04883 2.1748 5.48145c0.5 0.5 42.2998 45.4004 54.7998 95.7998
c-35.5996 35.7002 -57 81.1006 -57 130.7c0 114.9 114.6 208 256 208zM128 176c17.6611 0 32 14.3389 32 32s-14.3389 32 -32 32s-32 -14.3389 -32 -32s14.3389 -32 32 -32zM256 176c17.6611 0 32 14.3389 32 32s-14.3389 32 -32 32s-32 -14.3389 -32 -32
s14.3389 -32 32 -32zM384 176c17.6611 0 32 14.3389 32 32s-14.3389 32 -32 32s-32 -14.3389 -32 -32s14.3389 -32 32 -32z" />
    <glyph glyph-name="comment-edit-secondary" unicode="&#x10f4ae;" 
d="M256 416c141.4 0 256 -93.0996 256 -208s-114.6 -208 -256 -208c-0.12207 0 -0.370117 0.107422 -0.492188 0.107422c-37.6064 0 -73.6328 6.82129 -106.908 19.293c-24.5996 -19.6006 -74.2998 -51.4004 -140.6 -51.4004
c-0.0273438 0 -0.0488281 -0.00585938 -0.0761719 -0.00585938c-3.25 0 -6.04004 1.98438 -7.22363 4.80566c-0.431641 0.983398 -0.674805 2.07715 -0.674805 3.21875c0 2.12012 0.826172 4.04883 2.1748 5.48145c0.5 0.5 42.2998 45.4004 54.7998 95.7998
c-35.5996 35.7002 -57 81.1006 -57 130.7c0 114.9 114.6 208 256 208zM215.4 105.4l96.2998 96.2998l-54 54l-96.2998 -96.2998l-5.40039 -48.2002c-0.0390625 -0.361328 -0.0693359 -0.717773 -0.0693359 -1.08887c0 -5.61328 4.55762 -10.1699 10.1709 -10.1699
c0.371094 0 0.737305 0.0195312 1.09863 0.0585938zM366.1 256.1c3.66211 3.66016 5.92773 8.72168 5.92773 14.3027s-2.26562 10.6377 -5.92773 14.2979l-25.3994 25.3994c-3.66016 3.66211 -8.72168 5.92773 -14.3027 5.92773s-10.6377 -2.26562 -14.2979 -5.92773
l-31.7998 -31.7998l54 -54z" />
    <glyph glyph-name="comment-exclamation-secondary" unicode="&#x10f4af;" 
d="M256 416c141.4 0 256 -93.0996 256 -208s-114.6 -208 -256 -208c-0.12207 0 -0.370117 0.107422 -0.492188 0.107422c-37.6064 0 -73.6328 6.82129 -106.908 19.293c-24.5996 -19.6006 -74.2998 -51.4004 -140.6 -51.4004
c-0.0273438 0 -0.0488281 -0.00585938 -0.0761719 -0.00585938c-3.25 0 -6.04004 1.98438 -7.22363 4.80566c-0.431641 0.983398 -0.674805 2.07715 -0.674805 3.21875c0 2.12012 0.826172 4.04883 2.1748 5.48145c0.5 0.5 42.2998 45.4004 54.7998 95.7998
c-35.5996 35.7002 -57 81.1006 -57 130.7c0 114.9 114.6 208 256 208zM256 80c17.6611 0 32 14.3389 32 32s-14.3389 32 -32 32s-32 -14.3389 -32 -32s14.3389 -32 32 -32zM294.2 318.4c0.0537109 0.53125 0.0800781 1.05371 0.0800781 1.59961
c0 8.82422 -7.15918 15.9893 -15.9805 16h-44.5996c-8.82324 -0.046875 -15.9746 -7.20898 -15.9746 -16.0439c0 -0.524414 0.0253906 -1.04395 0.0742188 -1.55566l12.7998 -128c0.811523 -8.06641 7.62402 -14.3906 15.9004 -14.4004h19
c8.27637 0.00976562 15.0889 6.33398 15.9004 14.4004z" />
    <glyph glyph-name="comment-lines-secondary" unicode="&#x10f4b0;" 
d="M256 416c141.4 0 256 -93.0996 256 -208s-114.6 -208 -256 -208c-0.12207 0 -0.370117 0.107422 -0.492188 0.107422c-37.6064 0 -73.6328 6.82129 -106.908 19.293c-24.5996 -19.6006 -74.2998 -51.4004 -140.6 -51.4004
c-0.0273438 0 -0.0488281 -0.00585938 -0.0761719 -0.00585938c-3.25 0 -6.04004 1.98438 -7.22363 4.80566c-0.431641 0.983398 -0.674805 2.07715 -0.674805 3.21875c0 2.12012 0.826172 4.04883 2.1748 5.48145c0.5 0.5 42.2998 45.4004 54.7998 95.7998
c-35.5996 35.7002 -57 81.1006 -57 130.7c0 114.9 114.6 208 256 208zM288 152v16c0 4.41504 -3.58496 8 -8 8h-144c-4.41504 0 -8 -3.58496 -8 -8v-16c0 -4.41504 3.58496 -8 8 -8h144c4.41504 0 8 3.58496 8 8zM384 248v16c0 4.41504 -3.58496 8 -8 8h-240
c-4.41504 0 -8 -3.58496 -8 -8v-16c0 -4.41504 3.58496 -8 8 -8h240c4.41504 0 8 3.58496 8 8z" />
    <glyph glyph-name="comment-minus-secondary" unicode="&#x10f4b1;" 
d="M256 416c141.4 0 256 -93.0996 256 -208s-114.6 -208 -256 -208c-0.12207 0 -0.370117 0.107422 -0.492188 0.107422c-37.6064 0 -73.6328 6.82129 -106.908 19.293c-24.5996 -19.6006 -74.2998 -51.4004 -140.6 -51.4004
c-0.0273438 0 -0.0488281 -0.00585938 -0.0761719 -0.00585938c-3.25 0 -6.04004 1.98438 -7.22363 4.80566c-0.431641 0.983398 -0.674805 2.07715 -0.674805 3.21875c0 2.12012 0.826172 4.04883 2.1748 5.48145c0.5 0.5 42.2998 45.4004 54.7998 95.7998
c-35.5996 35.7002 -57 81.1006 -57 130.7c0 114.9 114.6 208 256 208zM368 200v16c0 8.83105 -7.16895 16 -16 16h-192c-8.83105 0 -16 -7.16895 -16 -16v-16c0 -8.83105 7.16895 -16 16 -16h192c8.83105 0 16 7.16895 16 16z" />
    <glyph glyph-name="comment-plus-secondary" unicode="&#x10f4b2;" 
d="M256 416c141.4 0 256 -93.0996 256 -208s-114.6 -208 -256 -208c-0.12207 0 -0.370117 0.107422 -0.492188 0.107422c-37.6064 0 -73.6328 6.82129 -106.908 19.293c-24.5996 -19.6006 -74.2998 -51.4004 -140.6 -51.4004
c-0.0273438 0 -0.0488281 -0.00585938 -0.0761719 -0.00585938c-3.25 0 -6.04004 1.98438 -7.22363 4.80566c-0.431641 0.983398 -0.674805 2.07715 -0.674805 3.21875c0 2.12012 0.826172 4.04883 2.1748 5.48145c0.5 0.5 42.2998 45.4004 54.7998 95.7998
c-35.5996 35.7002 -57 81.1006 -57 130.7c0 114.9 114.6 208 256 208zM368 200v16c0 8.83105 -7.16895 16 -16 16h-72v72c0 8.83105 -7.16895 16 -16 16h-16c-8.83105 0 -16 -7.16895 -16 -16v-72h-72c-8.83105 0 -16 -7.16895 -16 -16v-16c0 -8.83105 7.16895 -16 16 -16
h72v-72c0 -8.83105 7.16895 -16 16 -16h16c8.83105 0 16 7.16895 16 16v72h72c8.83105 0 16 7.16895 16 16z" />
    <glyph glyph-name="comment-slash-secondary" unicode="&#x10f4b3;" horiz-adv-x="640" 
d="M150.21 363.65c45.1797 32.5596 104.63 52.3496 169.79 52.3496c141.4 0 256 -93.0996 256 -208c0 -49.2305 -21 -94.46 -56.2305 -130.08zM64 208c0.0908203 18.7178 3.23047 36.7783 8.87012 53.6299l325.53 -251.63c-25.0918 -6.50586 -51.2871 -9.99902 -78.4004 -10
c-0.12207 0 -0.370117 0.107422 -0.492188 0.107422c-37.6064 0 -73.6328 6.82129 -106.908 19.293c-24.5996 -19.6006 -74.2998 -51.4004 -140.6 -51.4004c-4.41113 0.00488281 -7.99023 3.58984 -7.99023 8.00195c0 2.12891 0.833008 4.06445 2.19043 5.49805
c0.5 0.599609 42.2002 45.5 54.7998 95.7998c-35.5996 35.7002 -57 81.1006 -57 130.7z" />
    <glyph glyph-name="comment-smile-secondary" unicode="&#x10f4b4;" 
d="M256 416c141.4 0 256 -93.0996 256 -208s-114.6 -208 -256 -208c-0.12207 0 -0.370117 0.107422 -0.492188 0.107422c-37.6064 0 -73.6328 6.82129 -106.908 19.293c-24.5996 -19.6006 -74.2998 -51.4004 -140.6 -51.4004
c-0.0273438 0 -0.0488281 -0.00585938 -0.0761719 -0.00585938c-3.25 0 -6.04004 1.98438 -7.22363 4.80566c-0.431641 0.983398 -0.674805 2.07715 -0.674805 3.21875c0 2.12012 0.826172 4.04883 2.1748 5.48145c0.5 0.5 42.2998 45.4004 54.7998 95.7998
c-35.5996 35.7002 -57 81.1006 -57 130.7c0 114.9 114.6 208 256 208zM320 282.8c-14.791 0 -26.7998 -12.0088 -26.7998 -26.7998s12.0088 -26.7998 26.7998 -26.7998s26.7998 12.0088 26.7998 26.7998s-12.0088 26.7998 -26.7998 26.7998zM192 282.8
c-14.791 0 -26.7998 -12.0088 -26.7998 -26.7998s12.0088 -26.7998 26.7998 -26.7998s26.7998 12.0088 26.7998 26.7998s-12.0088 26.7998 -26.7998 26.7998zM356.2 141.9c2.32129 2.78613 3.72656 6.3877 3.72656 10.2939c0 8.86914 -7.20117 16.0703 -16.0703 16.0703
c-4.85449 0 -9.20898 -2.15723 -12.1562 -5.56445c-18.3857 -21.2803 -45.5205 -34.7549 -75.8223 -34.7549c-30.2529 0 -57.3936 13.4336 -75.7783 34.6543c-2.91406 3.95215 -7.5957 6.5 -12.8779 6.5c-8.83008 0 -16 -7.16895 -16 -16
c0 -4.3584 1.74707 -8.3125 4.57812 -11.1992c24.2734 -28.1436 60.127 -45.9697 100.171 -45.9697c40.043 0 75.9561 17.8262 100.229 45.9697z" />
    <glyph glyph-name="comment-times-secondary" unicode="&#x10f4b5;" 
d="M256 416c141.4 0 256 -93.0996 256 -208s-114.6 -208 -256 -208c-0.12207 0 -0.370117 0.107422 -0.492188 0.107422c-37.6064 0 -73.6328 6.82129 -106.908 19.293c-24.5996 -19.6006 -74.2998 -51.4004 -140.6 -51.4004
c-0.0273438 0 -0.0488281 -0.00585938 -0.0761719 -0.00585938c-3.25 0 -6.04004 1.98438 -7.22363 4.80566c-0.431641 0.983398 -0.674805 2.07715 -0.674805 3.21875c0 2.12012 0.826172 4.04883 2.1748 5.48145c0.5 0.5 42.2998 45.4004 54.7998 95.7998
c-35.5996 35.7002 -57 81.1006 -57 130.7c0 114.9 114.6 208 256 208zM340.9 134.5c2.87402 2.90234 4.64941 6.89941 4.64941 11.3027s-1.77539 8.39453 -4.64941 11.2969l-51 50.9004l50.8994 50.9004c2.87402 2.90234 4.65039 6.89941 4.65039 11.3027
c0 4.40234 -1.77637 8.39453 -4.65039 11.2969l-11.2998 11.2998c-2.90234 2.87402 -6.89941 4.65039 -11.3027 4.65039s-8.39453 -1.77637 -11.2969 -4.65039l-50.9004 -50.8994l-50.9004 50.8994c-2.90234 2.87402 -6.89941 4.65039 -11.3027 4.65039
c-4.40234 0 -8.39453 -1.77637 -11.2969 -4.65039l-11.2998 -11.2998c-2.87402 -2.90234 -4.65039 -6.89941 -4.65039 -11.3027s1.77637 -8.39453 4.65039 -11.2969l50.8994 -50.9004l-50.8994 -50.9004c-2.87402 -2.90234 -4.65039 -6.89941 -4.65039 -11.3027
c0 -4.40234 1.77637 -8.39453 4.65039 -11.2969l11.2998 -11.2998c2.90234 -2.87402 6.89941 -4.65039 11.3027 -4.65039s8.39453 1.77637 11.2969 4.65039l50.9004 50.8994l51 -50.8994c2.90234 -2.87402 6.89941 -4.65039 11.3027 -4.65039
s8.39453 1.77637 11.2969 4.65039z" />
    <glyph glyph-name="comments-alt-secondary" unicode="&#x10f4b6;" horiz-adv-x="576" 
d="M352 160.1h-189.7l-82.7998 -62.0996c-1.61719 -1.20605 -3.62109 -1.91992 -5.79199 -1.91992c-5.35352 0 -9.7002 4.3457 -9.7002 9.69922c0 0.00878906 -0.0078125 0.0117188 -0.0078125 0.0205078v54.2002c-35.3076 0.0332031 -63.9668 28.6924 -64 64v160
c0.0332031 35.3076 28.6924 63.9668 64 64h288c35.3076 -0.0332031 63.9668 -28.6924 64 -64v-160c-0.00585938 -35.2686 -28.6406 -63.8994 -63.9102 -63.8994c-0.0302734 0 -0.0595703 -0.000976562 -0.0898438 -0.000976562z" />
    <glyph glyph-name="container-storage-secondary" unicode="&#x10f4b7;" horiz-adv-x="640" 
d="M16 352h608v-320h-608v320zM112 64v256h-32v-256h32zM224 64v256h-32v-256h32zM336 64v256h-32v-256h32zM448 64v256h-32v-256h32zM560 64v256h-32v-256h32z" />
    <glyph glyph-name="couch-secondary" unicode="&#x10f4b8;" horiz-adv-x="640" 
d="M96 288h-32c0 52.9834 43.0166 96 96 96h320c52.9834 0 96 -43.0166 96 -96h-32c-35.3076 -0.0332031 -63.9668 -28.6924 -64 -64v-64h-320v64c-0.0332031 35.3076 -28.6924 63.9668 -64 64z" />
    <glyph glyph-name="donate-secondary" unicode="&#x10f4b9;" 
d="M256 32c-114.9 0 -208 93.0996 -208 208s93.0996 208 208 208s208 -93.0996 208 -208s-93.0996 -208 -208 -208zM233.8 350.6c-32.7002 -0.899414 -59 -28.3994 -59.0996 -62.3994c0 -27.7002 18 -52.4004 43.7002 -60.1006l62.2998 -18.6992
c7.09961 -2.10059 12.0996 -9.40039 12.0996 -17.6006c0 -10.0996 -7.2998 -18.2998 -16.2998 -18.2998h-38.9004c-0.0683594 0 -0.166992 0.0195312 -0.235352 0.0195312c-6.45605 0 -12.4805 1.86328 -17.5645 5.08008c-4.5 2.80078 -10.2002 2.7002 -14 -1
l-16.2998 -15.5c-2.09961 -2.03711 -3.41309 -4.88379 -3.41309 -8.03809c0 -3.72168 1.81836 -7.02246 4.61328 -9.06152c12.1045 -8.9707 26.9883 -14.5986 43 -15.4004v-17c0 -0.0136719 -0.000976562 -0.0263672 -0.000976562 -0.0400391
c0 -9.13965 7.41992 -16.5596 16.5596 -16.5596h0.0410156h11.1006c0.0136719 0 0.0263672 -0.000976562 0.0400391 -0.000976562c9.13965 0 16.5596 7.4209 16.5596 16.5605v0.0400391v16.8008c32.7002 0.899414 59.0996 28.3994 59.0996 62.3994
c0 27.7002 -18 52.4004 -43.6992 60.1006l-62.3008 18.6992c-7.09961 2.10059 -12.0996 9.40039 -12.0996 17.6006c0 10.0996 7.2998 18.2998 16.2998 18.2998h38.9004c0.0683594 0 0.166992 -0.0195312 0.236328 -0.0195312c6.45508 0 12.4795 -1.86328 17.5635 -5.08008
c4.5 -2.80078 10.2002 -2.7002 14 1l16.2998 15.5c2.09961 2.03711 3.41309 4.88379 3.41309 8.03809c0 3.72168 -1.81738 7.02246 -4.61328 9.06152c-12.1035 8.9707 -26.9883 14.5986 -43 15.4004v17c0 0.0136719 0.000976562 0.0263672 0.000976562 0.0400391
c0 9.13965 -7.41992 16.5596 -16.5596 16.5596h-0.0410156h-11.0996c-0.0136719 0 -0.0263672 0.000976562 -0.0400391 0.000976562c-9.13965 0 -16.5605 -7.4209 -16.5605 -16.5605v-0.0400391v-16.8008z" />
    <glyph glyph-name="fragile-secondary" unicode="&#x10f4bb;" horiz-adv-x="288" 
d="M192.21 448l30.5996 -63.7002l-85.5 -56l49.4004 -104.3l-121.5 119.7l85.5 56l-32.7998 48.2998h74.2998z" />
    <glyph glyph-name="hand-heart-secondary" unicode="&#x10f4bc;" horiz-adv-x="448" 
d="M416 336c17.6387 -0.0498047 31.9502 -14.3613 32 -32v-176.1c-0.203125 -14.5459 -1.96191 -28.6543 -5.09961 -42.3008l-26.5 -112.699c-4.96094 -21.1816 -23.9824 -37 -46.667 -37h-0.0332031h-197.601c-15.9531 0.0273438 -30.0713 7.79883 -38.7998 19.7998
l-125.6 172.7c-4.80664 6.60254 -7.68457 14.8008 -7.68457 23.585c0 22.085 17.9297 40.0146 40.0137 40.0146c13.2998 0 25.0928 -6.50293 32.3711 -16.5l23.5996 -32.5v241c0 17.6611 14.3389 32 32 32s32 -14.3389 32 -32v-152c0 -4.41504 3.58496 -8 8 -8h16
c4.41504 0 8 3.58496 8 8v184c0 17.6611 14.3389 32 32 32s32 -14.3389 32 -32v-184c0 -4.41504 3.58496 -8 8 -8h16c4.41504 0 8 3.58496 8 8v152c0 17.6611 14.3389 32 32 32s32 -14.3389 32 -32v-152c0 -4.41504 3.58496 -8 8 -8h16c4.41504 0 8 3.58496 8 8v72
c0.0498047 17.6387 14.3613 31.9502 32 32zM353.1 74.7998c9.20215 9.0166 14.9111 21.5664 14.9111 35.4541c0 15.6621 -7.26758 29.6416 -18.6104 38.7461c-20.6006 16.7002 -51.2002 13.7002 -70 -4.7998l-7.40039 -7.2998l-7.40039 7.2998
c-18.8994 18.5 -49.5 21.5 -70 4.7998c-11.3721 -9.08984 -18.6367 -23.0635 -18.6367 -38.7402c0 -13.8896 5.72266 -26.4531 14.9375 -35.46l72.5996 -71.3994c2.19727 -2.13477 5.2002 -3.44922 8.50293 -3.44922c3.30176 0 6.2998 1.31445 8.49707 3.44922z" />
    <glyph glyph-name="hand-holding-secondary" unicode="&#x10f4bd;" horiz-adv-x="576" 
d="M564 71l-151.2 -121c-10.9551 -8.74512 -24.8379 -13.9756 -39.9326 -13.9756c-0.00683594 0 -0.0595703 -0.0244141 -0.0673828 -0.0244141h-356.8c-8.83105 0 -16 7.16895 -16 16v96c0 8.83105 7.16895 16 16 16h55.4004l46.5 37.7002
c20.2197 16.4062 46.0596 26.2871 74.0996 26.2998h160h0.0605469c17.6611 0 32 -14.3389 32 -32c0 -1.85059 -0.158203 -3.63477 -0.460938 -5.40039c-2.59961 -15.6992 -17.3994 -26.5996 -33.2998 -26.5996h-78.2998c-8.83105 0 -16 -7.16895 -16 -16s7.16895 -16 16 -16
h118.3h0.168945c15.0498 0 28.9287 5.25586 39.8311 14l92.4004 73.9004c12.3994 10 30.7998 10.6992 42.5996 0c6.58594 -5.86328 10.7373 -14.4043 10.7373 -23.9072c0 -10.1172 -4.69727 -19.127 -12.0371 -24.9932z" />
    <glyph glyph-name="hand-holding-heart-secondary" unicode="&#x10f4be;" horiz-adv-x="576" 
d="M564 71l-151.2 -121c-10.9551 -8.74512 -24.8379 -13.9756 -39.9326 -13.9756c-0.00683594 0 -0.0595703 -0.0244141 -0.0673828 -0.0244141h-356.8c-8.83105 0 -16 7.16895 -16 16v96c0 8.83105 7.16895 16 16 16h55.4004l46.5 37.7002
c20.2197 16.4062 46.0596 26.2871 74.0996 26.2998h160h0.0605469c17.6611 0 32 -14.3389 32 -32c0 -1.85059 -0.158203 -3.63477 -0.460938 -5.40039c-2.59961 -15.6992 -17.3994 -26.5996 -33.2998 -26.5996h-78.2998c-8.83105 0 -16 -7.16895 -16 -16s7.16895 -16 16 -16
h118.3h0.168945c15.0498 0 28.9287 5.25586 39.8311 14l92.4004 73.9004c12.3994 10 30.7998 10.6992 42.5996 0c6.58594 -5.86328 10.7373 -14.4043 10.7373 -23.9072c0 -10.1172 -4.69727 -19.127 -12.0371 -24.9932z" />
    <glyph glyph-name="hand-holding-seedling-secondary" unicode="&#x10f4bf;" horiz-adv-x="576" 
d="M564 71l-151.2 -121c-10.9551 -8.74512 -24.8379 -13.9756 -39.9326 -13.9756c-0.00683594 0 -0.0595703 -0.0244141 -0.0673828 -0.0244141h-356.8c-8.83105 0 -16 7.16895 -16 16v96c0 8.83105 7.16895 16 16 16h55.4004l46.5 37.7002
c20.2197 16.4062 46.0596 26.2871 74.0996 26.2998h160h0.0605469c17.6611 0 32 -14.3389 32 -32c0 -1.85059 -0.158203 -3.63477 -0.460938 -5.40039c-2.59961 -15.6992 -17.3994 -26.5996 -33.2998 -26.5996h-78.2998c-8.83105 0 -16 -7.16895 -16 -16s7.16895 -16 16 -16
h118.3h0.168945c15.0498 0 28.9287 5.25586 39.8311 14l92.4004 73.9004c12.3994 10 30.7998 10.6992 42.5996 0c6.58594 -5.86328 10.7373 -14.4043 10.7373 -23.9072c0 -10.1172 -4.69727 -19.127 -12.0371 -24.9932z" />
    <glyph glyph-name="hands-secondary" unicode="&#x10f4c2;" horiz-adv-x="640" 
d="M204.8 217.6l57.6006 -76.7998c16.0234 -21.3877 25.585 -48.0479 25.5996 -76.7998v-112c0 -8.83105 -7.16895 -16 -16 -16h-131.7c-0.0566406 -0.000976562 -0.108398 0.00390625 -0.165039 0.00390625c-7.24023 0 -13.3398 4.91992 -15.1348 11.5957
c-1.98047 7.95801 -5.58301 15.3623 -10.4004 21.7002l-104.1 134.3c-6.55957 8.21582 -10.5 18.6602 -10.5 29.9805v0.0195312v218.4c0 17.6611 14.3389 32 32 32s32 -14.3389 32 -32v-148.4l89.7998 -107.8c2.91699 -3.55762 7.34277 -5.82129 12.2979 -5.82129
c4.41895 0 8.41992 1.80664 11.3027 4.72168l12.7998 12.7998c2.89746 2.89648 4.68066 6.91309 4.68066 11.3291c0 3.58789 -1.18359 6.90137 -3.18066 9.57129l-38.1006 50.7998c-4.00879 5.34473 -6.41504 12.0371 -6.41504 19.2266c0 17.6611 14.3389 32 32 32
c10.4727 0 19.7764 -5.04102 25.6152 -12.8271zM608 384c17.6611 0 32 -14.3389 32 -32v-218.4c0 -0.00683594 -0.0185547 -0.046875 -0.0185547 -0.0537109c0 -11.3203 -3.92188 -21.7305 -10.4814 -29.9463l-104.1 -134.3
c-4.81738 -6.33789 -8.41992 -13.7422 -10.4004 -21.7002c-1.82812 -6.67969 -7.94238 -11.5996 -15.1992 -11.5996h-0.100586h-131.7c-8.83105 0 -16 7.16895 -16 16v112c0.0146484 28.752 9.57617 55.4121 25.5996 76.7998l57.6006 76.7998
c5.83887 7.78613 15.1123 12.7734 25.585 12.7734c17.6611 0 32 -14.3389 32 -32c0 -7.18945 -2.37598 -13.8281 -6.38477 -19.1729l-38.1006 -50.7998c-1.99707 -2.66992 -3.19043 -5.99902 -3.19043 -9.58691c0 -4.41602 1.79297 -8.41699 4.69043 -11.3135
l12.7998 -12.7998c2.90234 -2.87012 6.88965 -4.65137 11.2891 -4.65137c4.94141 0 9.36426 2.23633 12.3115 5.75098l89.7998 107.8v148.4c0 17.6611 14.3389 32 32 32z" />
    <glyph glyph-name="hands-heart-secondary" unicode="&#x10f4c3;" horiz-adv-x="640" 
d="M608 384c17.6611 0 32 -14.3389 32 -32v-218.4c0 -0.00683594 -0.0185547 -0.046875 -0.0185547 -0.0537109c0 -11.3203 -3.92188 -21.7305 -10.4814 -29.9463l-104.1 -134.3c-4.81738 -6.33789 -8.41992 -13.7422 -10.4004 -21.7002
c-1.82812 -6.67969 -7.94238 -11.5996 -15.1992 -11.5996h-0.100586h-131.7c-8.83105 0 -16 7.16895 -16 16v112c0.0146484 28.752 9.57617 55.4121 25.5996 76.7998l57.6006 76.7998c5.83887 7.78613 15.1123 12.7734 25.585 12.7734c17.6611 0 32 -14.3389 32 -32
c0 -7.18945 -2.37598 -13.8281 -6.38477 -19.1729l-38.1006 -50.7998c-1.99707 -2.66992 -3.19043 -5.99902 -3.19043 -9.58691c0 -4.41602 1.79297 -8.41699 4.69043 -11.3135l12.7998 -12.7998c2.90234 -2.87012 6.88965 -4.65137 11.2891 -4.65137
c4.94141 0 9.36426 2.23633 12.3115 5.75098l89.7998 107.8v148.4c0 17.6611 14.3389 32 32 32zM204.8 217.58l57.6006 -76.7803c16.0234 -21.3877 25.585 -48.0479 25.5996 -76.7998v-112c0 -8.83105 -7.16895 -16 -16 -16h-131.7
c-0.0566406 -0.000976562 -0.108398 0.00390625 -0.165039 0.00390625c-7.24023 0 -13.3398 4.91992 -15.1348 11.5957c-1.98047 7.95801 -5.58301 15.3623 -10.4004 21.7002l-104.1 134.3c-6.55957 8.21582 -10.5 18.6602 -10.5 29.9805v0.0195312v218.4
c0 17.6611 14.3389 32 32 32s32 -14.3389 32 -32v-148.42l89.7998 -107.8c2.91699 -3.55762 7.34277 -5.82129 12.2979 -5.82129c4.41895 0 8.41992 1.80664 11.3027 4.7207l12.7998 12.8008c2.89746 2.89551 4.68066 6.91211 4.68066 11.3291
c0 3.58691 -1.18359 6.90039 -3.18066 9.57031l-38.1006 50.7998c-4.00879 5.3457 -6.41504 12.0381 -6.41504 19.2275c0 17.6611 14.3389 32 32 32c10.4727 0 19.7764 -5.04102 25.6152 -12.8271z" />
    <glyph glyph-name="hands-helping-secondary" unicode="&#x10f4c4;" horiz-adv-x="640" 
d="M224 200v126.32v0.113281c0 11.3955 5.97754 21.377 15 26.9863l33.5 20.9004c9.83301 6.09668 21.4932 9.66406 33.9004 9.67969h102.21l103.39 59.7197c4.70117 2.71484 10.1543 4.26855 15.9678 4.26855c11.8525 0 22.2217 -6.40332 27.752 -15.9883l80 -138.6
c2.71289 -4.69922 4.26465 -10.1514 4.26465 -15.9619c0 -11.8428 -6.3916 -22.2051 -15.9648 -27.7383l-80 -46.2002v28.5c0 30.9072 -25.0928 56 -56 56h-184.02v-88c0 -22.0762 -17.9238 -40 -40 -40s-40 17.9238 -40 40z" />
    <glyph glyph-name="hands-usd-secondary" unicode="&#x10f4c5;" horiz-adv-x="640" 
d="M608 384c17.6611 0 32 -14.3389 32 -32v-218.4c0 -0.00683594 -0.0185547 -0.046875 -0.0185547 -0.0537109c0 -11.3203 -3.92188 -21.7305 -10.4814 -29.9463l-104.1 -134.3c-4.81738 -6.33789 -8.41992 -13.7422 -10.4004 -21.7002
c-1.82812 -6.67969 -7.94238 -11.5996 -15.1992 -11.5996h-0.100586h-131.7c-8.83105 0 -16 7.16895 -16 16v112c0.0146484 28.752 9.57617 55.4121 25.5996 76.7998l57.6006 76.7998c5.83887 7.78613 15.1123 12.7734 25.585 12.7734c17.6611 0 32 -14.3389 32 -32
c0 -7.18945 -2.37598 -13.8281 -6.38477 -19.1729l-38.1006 -50.7998c-1.99707 -2.66992 -3.19043 -5.99902 -3.19043 -9.58691c0 -4.41602 1.79297 -8.41699 4.69043 -11.3135l12.7998 -12.7998c2.90234 -2.87012 6.88965 -4.65137 11.2891 -4.65137
c4.94141 0 9.36426 2.23633 12.3115 5.75098l89.7998 107.8v148.4c0 17.6611 14.3389 32 32 32zM204.8 217.6l57.6006 -76.7998c16.0234 -21.3877 25.585 -48.0479 25.5996 -76.7998v-112c0 -8.83105 -7.16895 -16 -16 -16h-131.7
c-0.0566406 -0.000976562 -0.108398 0.00390625 -0.165039 0.00390625c-7.24023 0 -13.3398 4.91992 -15.1348 11.5957c-1.98047 7.95801 -5.58301 15.3623 -10.4004 21.7002l-104.1 134.3c-6.55957 8.21582 -10.5 18.6602 -10.5 29.9805v0.0195312v218.4
c0 17.6611 14.3389 32 32 32s32 -14.3389 32 -32v-148.4l89.7998 -107.8c2.91699 -3.55762 7.34277 -5.82129 12.2979 -5.82129c4.41895 0 8.41992 1.80664 11.3027 4.72168l12.7998 12.7998c2.89746 2.89648 4.68066 6.91309 4.68066 11.3291
c0 3.58789 -1.18359 6.90137 -3.18066 9.57129l-38.1006 50.7998c-4.00879 5.34473 -6.41504 12.0371 -6.41504 19.2266c0 17.6611 14.3389 32 32 32c10.4727 0 19.7764 -5.04102 25.6152 -12.8271z" />
    <glyph glyph-name="handshake-alt-secondary" unicode="&#x10f4c6;" horiz-adv-x="640" 
d="M640 304.1v-191.8c0 -8.83008 -7.16895 -16 -16 -16h-97.5996c-2.69727 15.1699 -10.7588 28.5146 -22.2002 37.9004l-145.601 118.2l26.1006 23.8994c3.04883 2.91406 4.94824 7.01953 4.94824 11.5664c0 8.83008 -7.16895 16 -16 16
c-4.03418 0 -7.7334 -1.49902 -10.5488 -3.96582l-27 -24.7002l-53 -48.5c-0.0996094 -0.100586 -0.299805 -0.100586 -0.399414 -0.200195c-21.1006 -18.9004 -46.5 -7.7998 -56.1006 2.7002c-6.54492 7.07812 -10.5469 16.542 -10.5469 26.9326
c0 11.4678 4.85938 21.8184 12.6475 29.0674c0.0996094 0.0996094 0.200195 0.299805 0.299805 0.399414l98.2998 90c5.69141 5.21191 13.2832 8.39746 21.6006 8.40039h85.8994c8.8252 -0.0078125 16.8223 -3.59863 22.6006 -9.40039l54.5996 -54.5996h112
c8.79688 0 15.9453 -7.11621 16 -15.9004z" />
    <glyph glyph-name="heart-square-secondary" unicode="&#x10f4c8;" horiz-adv-x="448" 
d="M400 416c26.4922 0 48 -21.5078 48 -48v-352c0 -26.4922 -21.5078 -48 -48 -48h-352c-26.4922 0 -48 21.5078 -48 48v352c0 26.4922 21.5078 48 48 48h352zM347.5 167.7c32.2002 33.2002 30.2998 88.2002 -5.5 118.8c-31.2998 26.7002 -77.9004 21.9004 -106.6 -7.7002
l-11.3008 -11.5996l-11.2998 11.5996c-28.7002 29.6006 -75.2998 34.4004 -106.6 7.7002c-35.9004 -30.5996 -37.7998 -85.5996 -5.7002 -118.8l110.5 -114.2c3.25781 -3.42188 7.85742 -5.55664 12.9502 -5.55664s9.69238 2.13477 12.9502 5.55664z" />
    <glyph glyph-name="leaf-heart-secondary" unicode="&#x10f4cb;" horiz-adv-x="576" 
d="M546.2 438.28c19 -42.4004 29.7998 -94.3906 29.7998 -144.59c0 -172.381 -110.51 -313.171 -267.55 -324.57c-6.78516 -0.723633 -13.4795 -1.09766 -20.4502 -1.12012v0.540039h-0.209961c-0.0302734 0 0.0634766 -0.206055 0.0332031 -0.206055
c-70.6514 0 -132.426 38.3125 -165.663 95.2764c-50.7197 -55.5508 -74.8105 -111.98 -75.0498 -112.551c-3.66895 -8.84668 -12.3994 -15.0488 -22.5664 -15.0488c-3.38574 0 -6.61133 0.69043 -9.54395 1.93945c-8.82422 3.77832 -14.9844 12.5498 -14.9844 22.75
c0 3.38477 0.681641 6.61133 1.91406 9.5498c1.07031 2.59961 27.2402 64.3301 83.8506 126.43c5.22656 5.75293 10.5596 11.3301 16 16.7305c-3.76465 14.9961 -5.78027 30.6045 -5.78027 46.7607v0.109375c0 105.89 85.8604 191.72 191.75 191.72h80.25
c63.3799 0 118.89 33.5801 149.89 87.4805c6.7002 11.7998 22.71 11.2998 28.3105 -1.2002zM430.55 153.58c10.7646 10.9375 17.4414 25.9326 17.4414 42.4746c0 18.7549 -8.54102 35.5293 -21.9414 46.6455c-23.8994 20 -59.5996 16.3994 -81.5996 -5.7998
l-8.60059 -8.7002l-8.59961 8.7002c-22 22.1992 -57.5996 25.7998 -81.5996 5.7998c-13.3125 -11.1299 -21.7559 -27.8506 -21.7559 -46.542c0 -16.5752 6.66406 -31.6064 17.4551 -42.5586l84.7002 -85.5996c2.52637 -2.54883 6.0332 -4.12793 9.90137 -4.12793
c3.86914 0 7.37207 1.5791 9.89844 4.12793z" />
    <glyph glyph-name="loveseat-secondary" unicode="&#x10f4cc;" 
d="M160 160v64c-0.0332031 35.3076 -28.6924 63.9668 -64 64h-32c0 52.9834 43.0166 96 96 96h192c52.9834 0 96 -43.0166 96 -96h-32c-35.3076 -0.0332031 -63.9668 -28.6924 -64 -64v-64h-192z" />
    <glyph glyph-name="parachute-box-secondary" unicode="&#x10f4cd;" 
d="M487.1 256l-136.8 -151.9c0.700195 -2.69922 1.60059 -5.19922 1.60059 -8.09961v-128c0 -17.6611 -14.3389 -32 -32 -32h-128c-17.6621 0 -32 14.3389 -32 32v128c0 2.90039 0.899414 5.5 1.59961 8.09961l-136.7 151.9h43.1006l116.6 -129.5
c2.5 0.599609 4.7998 1.5 7.5 1.5h48v128h32v-128h48c2.7002 0 5 -0.900391 7.5 -1.5l116.6 129.5h43z" />
    <glyph glyph-name="people-carry-secondary" unicode="&#x10f4ce;" horiz-adv-x="640" 
d="M512 448c26.4922 0 48 -21.5078 48 -48s-21.5078 -48 -48 -48s-48 21.5078 -48 48s21.5078 48 48 48zM128 448c26.4922 0 48 -21.5078 48 -48s-21.5078 -48 -48 -48s-48 21.5078 -48 48s21.5078 48 48 48zM400 320c8.72852 0 15.8369 -7.00977 16 -15.7002v-171.91
c-4.65039 -2.46973 -11.3301 -3.92969 -16 -4.2998h-160c-4.66992 0.370117 -11.3701 1.83008 -16 4.32031v171.59c0 8.83105 7.16895 16 16 16h160z" />
    <glyph glyph-name="person-carry-secondary" unicode="&#x10f4cf;" horiz-adv-x="384" 
d="M80 448c26.4922 0 48 -21.5078 48 -48s-21.5078 -48 -48 -48s-48 21.5078 -48 48s21.5078 48 48 48zM368 352c8.83105 0 16 -7.16895 16 -16v-160c0 -8.83105 -7.16895 -16 -16 -16h-176v176c0 8.83105 7.16895 16 16 16h160z" />
    <glyph glyph-name="person-dolly-secondary" unicode="&#x10f4d0;" 
d="M511.74 43.1904c0.168945 -0.647461 0.256836 -1.32324 0.256836 -2.02344c0 -3.72363 -2.5498 -6.85742 -5.99707 -7.74707l-154.11 -41.2803c-3.8623 -31.5654 -30.8555 -56.1465 -63.458 -56.1465c-35.25 0 -63.8691 28.6191 -63.8691 63.8701
c0 21.666 10.8105 40.8262 27.3271 52.377l-58.8994 220c-0.170898 0.649414 -0.259766 1.32715 -0.259766 2.03027c0 3.71387 2.53613 6.83984 5.96973 7.73926l30.8994 8.2998c0.650391 0.170898 1.32812 0.259766 2.03125 0.259766
c3.71289 0 6.83984 -2.53613 7.73926 -5.96973l59.3994 -221.6c16.6396 -2.60059 31.1807 -11.6191 40.9004 -24.5l154.1 41.2998c0.650391 0.170898 1.32812 0.259766 2.03125 0.259766c3.71387 0 6.83984 -2.53613 7.73926 -5.96973zM288.73 -16
c8.83008 0 16 7.16895 16 16s-7.16992 16 -16 16c-8.83105 0 -16 -7.16895 -16 -16s7.16895 -16 16 -16zM80 448c26.4961 -0.0273438 48.001 -21.5479 48.001 -48.0498c0 -26.5195 -21.5303 -48.0498 -48.0498 -48.0498s-48.0498 21.5303 -48.0498 48.0498
c0 26.502 21.5029 48.0225 47.999 48.0498h0.0996094z" />
    <glyph glyph-name="person-dolly-empty-secondary" unicode="&#x10f4d1;" 
d="M80 448c26.4961 -0.0273438 48.001 -21.5479 48.001 -48.0498c0 -26.5195 -21.5303 -48.0498 -48.0498 -48.0498s-48.0498 21.5303 -48.0498 48.0498c0 26.502 21.5029 48.0225 47.999 48.0498h0.0996094zM511.74 43.1797
c0.167969 -0.644531 0.254883 -1.31641 0.254883 -2.01367c0 -3.72266 -2.54883 -6.85547 -5.99512 -7.74609l-154.11 -41.3096c-3.8623 -31.5654 -30.8555 -56.1475 -63.458 -56.1475c-35.25 0 -63.8691 28.6191 -63.8691 63.8701c0 21.666 10.8105 40.8262 27.3271 52.377
l-58.8994 220c-0.170898 0.649414 -0.259766 1.32812 -0.259766 2.03027c0 3.71387 2.53613 6.83984 5.96973 7.74023l30.8994 8.2998c0.650391 0.170898 1.33008 0.259766 2.0332 0.259766c3.71094 0 6.83398 -2.53125 7.7373 -5.95996l59.3994 -221.6
c16.6387 -2.60547 31.1777 -11.623 40.9004 -24.5l154.1 41.2998c0.650391 0.170898 1.33008 0.259766 2.0332 0.259766c3.71094 0 6.83398 -2.53125 7.7373 -5.95996zM288.73 -16c8.83008 0 16 7.16895 16 16s-7.16992 16 -16 16c-8.83105 0 -16 -7.16895 -16 -16
s7.16895 -16 16 -16z" />
    <glyph glyph-name="phone-plus-secondary" unicode="&#x10f4d2;" 
d="M144 432v-64h64c8.83105 0 16 -7.16895 16 -16v-32c0 -8.83105 -7.16895 -16 -16 -16h-64v-64c0 -8.83105 -7.16895 -16 -16 -16h-32c-8.83105 0 -16 7.16895 -16 16v64h-64c-8.83105 0 -16 7.16895 -16 16v32c0 8.83105 7.16895 16 16 16h64v64
c0 8.83105 7.16895 16 16 16h32c8.83105 0 16 -7.16895 16 -16z" />
    <glyph glyph-name="ramp-loading-secondary" unicode="&#x10f4d4;" horiz-adv-x="384" 
d="M355.4 64.7002l-34.4004 68.7998c-0.299805 0.525391 -0.632812 1.02344 -1 1.5v249h-256v-249c-0.299805 -0.5 -0.700195 -0.900391 -1 -1.5l-34.4004 -68.7998c-16 1.7998 -28.5996 14.7998 -28.5996 31.2998v320c0 17.6611 14.3389 32 32 32h320
c17.6611 0 32 -14.3389 32 -32v-320c0 -16.4004 -12.5996 -29.5 -28.5996 -31.2998z" />
    <glyph glyph-name="ribbon-secondary" unicode="&#x10f4d6;" horiz-adv-x="448" 
d="M6 3.70996l117.2 130l79.2002 -87.9004l-91.8008 -101.899c-4.41797 -4.85156 -10.7842 -7.89844 -17.8564 -7.89844c-4.96484 0 -9.60352 1.52539 -13.4434 4.09863l-68.7598 27.8896c-6.38574 4.29492 -10.5898 11.5869 -10.5898 19.8545
c0 6.08203 2.30371 11.6338 6.0498 15.8555z" />
    <glyph glyph-name="seedling-secondary" unicode="&#x10f4d8;" 
d="M512 416c0 -115.9 -88 -211.1 -200.7 -222.8c-10.8086 40.6494 -31.3564 77.5205 -59 107.6c38.2998 68.7002 111.5 115.2 195.7 115.2h64z" />
    </font>
</defs>
</svg>
