<?xml version="1.0" standalone="no"?>
<!DOCTYPE svg PUBLIC "-//W3C//DTD SVG 1.1//EN" "http://www.w3.org/Graphics/SVG/1.1/DTD/svg11.dtd" >
<svg xmlns="http://www.w3.org/2000/svg" xmlns:xlink="http://www.w3.org/1999/xlink" version="1.1">
<metadata>
Created by FontForge 20201107 at Wed Aug  4 12:37:15 2021
 By Robert Madole
Copyright (c) Font Awesome
</metadata>
<!-- Font Awesome Pro 5.15.4 by @fontawesome - https://fontawesome.com License - https://fontawesome.com/license (Commercial License) --><defs>
<font id="FontAwesome5Pro-Regular" horiz-adv-x="512" >
  <font-face 
    font-family="Font Awesome 5 Pro Regular"
    font-weight="400"
    font-stretch="normal"
    units-per-em="512"
    panose-1="2 0 5 3 0 0 0 0 0 0"
    ascent="448"
    descent="-64"
    bbox="-0.00419793 -64.2598 640 448.996"
    underline-thickness="25"
    underline-position="-50"
    unicode-range="U+0020-F8FF"
  />
    <missing-glyph />
    <glyph glyph-name="rocket" unicode="&#xf135;" 
d="M367.968 344.004c22.0713 -0.0136719 39.9883 -17.9297 40.0039 -40c0 -22.0752 -17.9229 -39.998 -39.999 -39.998c-22.0752 0 -39.999 17.9229 -39.999 39.999c0 22.0742 17.9209 39.9961 39.9941 39.999zM505.073 428.658
c7.00195 -32.6562 7.00195 -58.125 6.9082 -83.6543c0 -103.248 -55.3809 -165.934 -128.105 -212.697v-101.527c0 -16.3594 -11.877 -35.5625 -26.502 -42.8594l-98.6963 -49.4043c-3.27832 -1.48047 -6.9248 -2.375 -10.7188 -2.51562
c-13.2451 0.00292969 -23.999 10.7549 -24.002 24v92.6836l-21.3457 -10.5762c-2.84375 -1.39062 -21.0957 -9.40625 -36.6602 6.13867l-53.7539 53.7188c-1.87891 1.84961 -15.4922 17.7129 -6.15625 36.623l10.5938 21.4219h-92.6328
c-13.2451 0.00195312 -23.9971 10.7539 -24.002 23.998c0.134766 3.79297 1.03613 7.43555 2.53125 10.7031l49.4102 98.8105c7.3457 14.6074 26.5332 26.4668 42.8789 26.4824h101.416c46.7227 72.9043 109.163 127.996 212.923 127.996c25.4082 0 50.9414 0 83.5703 -7
c5.59375 -1.20312 11.125 -6.73438 12.3438 -12.3418zM358.53 173.01c73.8809 47.6855 105.445 99.2305 105.445 172.01c0.0625 17.3594 0.125 33.9199 -2.25 52.6387c-18.2812 2.34375 -34.5645 2.34375 -52.5664 2.34375c-73.1934 0 -124.821 -31.5312 -172.202 -105.34
c-18.4688 -36.8906 -60.1289 -121.199 -82.7246 -166.887l37.502 -37.498c45.6914 22.5918 129.854 64.248 166.796 82.7324z" />
    <glyph glyph-name="plug" unicode="&#xf1e6;" horiz-adv-x="384" 
d="M312 424v-88h-48v88c0 13.2461 10.7539 24 24 24s24 -10.7539 24 -24zM120 424v-88h-48v88c0 13.2461 10.7539 24 24 24s24 -10.7539 24 -24zM368 304c8.83105 0 16 -7.16895 16 -16v-16c0 -8.83105 -7.16895 -16 -16 -16h-16v-64
c0 -80.1396 -59.1104 -145.92 -136 -157.58v-98.4199h-48v98.4199c-76.8896 11.6602 -136 77.4404 -136 157.58v64h-16c-8.83105 0 -16 7.16895 -16 16v16c0 8.83105 7.16895 16 16 16h352zM304 192v64h-224v-64c0 -61.8145 50.1855 -112 112 -112s112 50.1855 112 112z" />
    <glyph glyph-name="hand-spock" unicode="&#xf259;" 
d="M501.03 331.824c6.92773 -11.1826 10.9697 -24.4053 10.9697 -38.5146c0 -5.92676 -0.706055 -11.6885 -2.03809 -17.208l-57.623 -241.963c-13.2236 -56.1904 -63.707 -98.1387 -123.908 -98.1387h-0.352539h-107.455
c-0.0761719 0 -0.193359 0.00195312 -0.270508 0.00195312c-40.9248 0 -78.1475 15.9814 -105.761 42.0391l-91.3652 85.9766c-14.3076 13.4434 -23.2246 32.5547 -23.2246 53.7168c0 19.5254 7.61035 37.2861 20.0254 50.4766
c5.31836 5.66406 29.875 29.3926 68.1152 21.8477l-24.3594 82.1973c-1.97363 6.64844 -2.97656 13.6836 -2.97656 20.9688c0 38.6953 29.8926 70.4639 67.8262 73.4531c-0.246094 2.45117 -0.34082 4.85547 -0.34082 7.37207c0 34.4199 23.585 63.376 55.4619 71.5752
c43.248 10.9785 80.5645 -17.7012 89.6602 -53.0723l13.6836 -53.207l4.64648 22.6602c6.99023 33.5186 36.6826 58.8037 72.2373 58.916c8.73438 0 56.625 -3.26953 70.7383 -54.0801c15.0664 0.710938 46.9199 -3.50977 66.3105 -35.0176zM463.271 287.219
c7.86914 32.9844 -42.1211 45.2695 -50.0859 11.9219l-24.8008 -104.146c-4.38867 -18.4141 -31.7783 -11.8926 -28.0557 6.2168l28.5479 139.166c7.39844 36.0703 -43.3076 45.0703 -50.1182 11.9629l-31.791 -154.971
c-3.54883 -17.3086 -28.2832 -18.0469 -32.7109 -0.804688l-47.3262 184.035c-8.43359 32.8105 -58.3691 20.2676 -49.8652 -12.8359l42.4414 -165.039c4.81641 -18.7207 -23.3711 -26.9121 -28.9648 -8.00781l-31.3438 105.779
c-9.6875 32.6465 -59.1191 18.2578 -49.3867 -14.625l36.0137 -121.539c6.59375 -22.2441 10.1777 -45.7803 10.1777 -70.1523c0 -6.54297 -8.05664 -10.9355 -13.4824 -5.82617l-51.123 48.1074c-24.7852 23.4082 -60.0527 -14.1875 -35.2793 -37.4902l91.3691 -85.9805
c19.0469 -17.9736 44.75 -28.998 72.9795 -28.998h0.157227h107.455c0.0732422 0 0.138672 0.0429688 0.212891 0.0429688c37.5791 0 69.1016 26.1416 77.3564 61.2168z" />
    <glyph glyph-name="shower" unicode="&#xf2cc;" 
d="M304 128c8.83105 0 16 -7.16895 16 -16s-7.16895 -16 -16 -16s-16 7.16895 -16 16s7.16895 16 16 16zM336 224c8.83105 0 16 -7.16895 16 -16s-7.16895 -16 -16 -16s-16 7.16895 -16 16s7.16895 16 16 16zM368 160c-8.83105 0 -16 7.16895 -16 16s7.16895 16 16 16
s16 -7.16895 16 -16s-7.16895 -16 -16 -16zM336 128c-8.83105 0 -16 7.16895 -16 16s7.16895 16 16 16s16 -7.16895 16 -16s-7.16895 -16 -16 -16zM304 192c8.83105 0 16 -7.16895 16 -16s-7.16895 -16 -16 -16s-16 7.16895 -16 16s7.16895 16 16 16zM432 224
c-8.83105 0 -16 7.16895 -16 16s7.16895 16 16 16s16 -7.16895 16 -16s-7.16895 -16 -16 -16zM384 208c0 8.83105 7.16895 16 16 16s16 -7.16895 16 -16s-7.16895 -16 -16 -16s-16 7.16895 -16 16zM368 256c8.83105 0 16 -7.16895 16 -16s-7.16895 -16 -16 -16
s-16 7.16895 -16 16s7.16895 16 16 16zM464 224c8.83105 0 16 -7.16895 16 -16s-7.16895 -16 -16 -16s-16 7.16895 -16 16s7.16895 16 16 16zM496 256c8.83105 0 16 -7.16895 16 -16s-7.16895 -16 -16 -16s-16 7.16895 -16 16s7.16895 16 16 16zM432 192
c8.83105 0 16 -7.16895 16 -16s-7.16895 -16 -16 -16s-16 7.16895 -16 16s7.16895 16 16 16zM400 160c8.83105 0 16 -7.16895 16 -16s-7.16895 -16 -16 -16s-16 7.16895 -16 16s7.16895 16 16 16zM336 96c8.83105 0 16 -7.16895 16 -16s-7.16895 -16 -16 -16
s-16 7.16895 -16 16s7.16895 16 16 16zM304 64c8.83105 0 16 -7.16895 16 -16s-7.16895 -16 -16 -16s-16 7.16895 -16 16s7.16895 16 16 16zM368 128c8.83105 0 16 -7.16895 16 -16s-7.16895 -16 -16 -16s-16 7.16895 -16 16s7.16895 16 16 16zM389.65 346.35
c2.89648 -2.89551 4.68945 -6.90039 4.68945 -11.3164s-1.79297 -8.41699 -4.68945 -11.3135l-169.381 -169.37c-2.89551 -2.89648 -6.90039 -4.68945 -11.3164 -4.68945s-8.41699 1.79297 -11.3135 4.68945l-11.2998 11.3105
c-2.89355 2.89551 -4.68457 6.89844 -4.68457 11.3125c0 4.41309 1.79102 8.41113 4.68457 11.3076l5.66016 5.66992c-19.7822 20.0381 -31.9199 47.6943 -31.9199 78.0488c0 22.1758 6.52148 42.8418 17.75 60.1807l-16.2998 16.3008
c-12.0381 12.041 -28.6758 19.4844 -47.0303 19.4844c-36.6973 0 -66.4912 -29.79 -66.5 -66.4844v-317.48c0 -8.83105 -7.16895 -16 -16 -16h-16c-8.83105 0 -16 7.16895 -16 16v312.06c0 58.8701 42 112.21 100.47 119.11
c4.6748 0.583984 9.33301 0.898438 14.165 0.898438c31.5762 0 60.1719 -12.8574 80.835 -33.6182l16.29 -16.29c17.3486 11.2432 38.1631 17.8545 60.3564 17.8545c30.3633 0 57.8936 -12.2236 77.9336 -32.0146l5.66992 5.66016
c2.89648 2.89648 6.90137 4.68945 11.3174 4.68945s8.41699 -1.79297 11.3125 -4.68945zM226.28 228.22l89.5 89.5c-11.4707 11.04 -26.6299 18.2803 -43.7803 18.2803c-35.3047 -0.0380859 -63.9619 -28.6953 -64 -64c0 -17.1504 7.24023 -32.3096 18.2803 -43.7803z" />
    <glyph glyph-name="bath" unicode="&#xf2cd;" 
d="M496 192c8.83105 0 16 -7.16895 16 -16v-16c0 -8.83105 -7.16895 -16 -16 -16h-16v-80c-0.0576172 -28.2656 -12.3916 -53.6514 -32 -71.0898v-40.9102c0 -8.83105 -7.16895 -16 -16 -16h-16c-8.83105 0 -16 7.16895 -16 16v17.6104
c-5.21582 -0.972656 -10.5254 -1.52148 -16 -1.61035h-256c-5.47461 0.0888672 -10.7842 0.637695 -16 1.61035v-17.6104c0 -8.83105 -7.16895 -16 -16 -16h-16c-8.83105 0 -16 7.16895 -16 16v40.9102c-19.6084 17.4385 -31.9424 42.8242 -32 71.0898v80h-16
c-8.83105 0 -16 7.16895 -16 16v16c0 8.83105 7.16895 16 16 16h16v186.75c0 0.00878906 0.00976562 0.0263672 0.00976562 0.0351562c0 38.2207 31.0293 69.25 69.25 69.25c19.1113 0 36.4248 -7.75879 48.96 -20.2949l12 -12
c10.1572 5.24805 21.7549 8.28027 33.9668 8.28027c21.3086 0 40.5254 -9.02637 54.0332 -23.4609c2.81152 2.51465 6.53125 4.04785 10.5957 4.04785c4.36035 0 8.3125 -1.75977 11.1846 -4.60742l11.3096 -11.3096c2.89746 -2.89648 4.69043 -6.90137 4.69043 -11.3174
s-1.79297 -8.41699 -4.69043 -11.3135l-105.369 -105.369c-2.89648 -2.89746 -6.90137 -4.69043 -11.3174 -4.69043s-8.41699 1.79297 -11.3135 4.69043l-11.3096 11.3096c-2.83105 2.87109 -4.5752 6.82324 -4.5752 11.1699c0 4.06152 1.52637 7.76855 4.03516 10.5801
c-14.4346 13.5078 -23.3926 32.7969 -23.3926 54.1055c0 12.2129 2.96484 23.7373 8.21289 33.8945l-12 12c-3.84766 3.84082 -9.16016 6.21289 -15.0205 6.21289c-11.7178 0 -21.2344 -9.50098 -21.2598 -21.2129v-186.75h416zM178 327.49
c14.6201 14.3096 27.0703 26.7598 38.5801 38.4395c-5 5.99023 -12.1201 10.0703 -20.5801 10.0703c-15.4541 0 -28 -12.5459 -28 -28c0 -8.41016 4.07031 -15.5098 10 -20.5098zM432 64v80h-352v-80c0.0273438 -26.4795 21.5205 -47.9727 48 -48h256
c26.4795 0.0273438 47.9727 21.5205 48 48z" />
    <glyph glyph-name="compress-alt" unicode="&#xf422;" horiz-adv-x="448" 
d="M224 216v95.0049c0 21.3818 25.8506 32.0898 40.9707 16.9707l27.7041 -27.7031l112.213 112.213c4.68652 4.68555 12.2842 4.68555 16.9717 0l22.627 -22.627c4.68555 -4.68652 4.68555 -12.2842 0 -16.9717l-112.214 -112.213l27.7031 -27.7041
c15.1191 -15.1191 4.41113 -40.9697 -16.9707 -40.9697h-95.0049c-13.2549 0 -24 10.7451 -24 24zM43.1123 -28.4854c-4.68652 -4.68652 -12.2842 -4.68652 -16.9707 -0.000976562l-22.627 22.627c-4.68555 4.6875 -4.68555 12.2852 0 16.9717l112.213 112.213
l-27.7031 27.7041c-15.1191 15.1201 -4.41113 40.9707 16.9707 40.9707h95.0049c13.2549 0 24 -10.7451 24 -24v-95.0049c0 -21.3818 -25.8506 -32.0898 -40.9707 -16.9707l-27.7041 27.7031z" />
    <glyph glyph-name="expand-alt" unicode="&#xf424;" horiz-adv-x="448" 
d="M448 392v-95.0049c0 -21.3818 -25.8506 -32.0898 -40.9707 -16.9707l-27.7041 27.7031l-107.242 -107.242c-4.68555 -4.68652 -12.2842 -4.68652 -16.9707 0l-22.627 22.627c-4.68652 4.68555 -4.68652 12.2842 0 16.9707l107.242 107.243l-27.7031 27.7041
c-15.1191 15.1191 -4.41113 40.9697 16.9707 40.9697h95.0049c13.2549 0 24 -10.7451 24 -24zM175.917 183.515c4.68555 4.68652 12.2842 4.68652 16.9707 0.000976562l22.627 -22.627c4.68652 -4.68652 4.68652 -12.2852 0 -16.9707l-107.242 -107.243l27.7031 -27.7041
c15.1191 -15.1201 4.41113 -40.9707 -16.9707 -40.9707h-95.0049c-13.2549 0 -24 10.7451 -24 24v95.0049c0 21.3818 25.8506 32.0898 40.9697 16.9707l27.7041 -27.7031z" />
    <glyph glyph-name="balance-scale-left" unicode="&#xf515;" horiz-adv-x="640" 
d="M512 64c-70.6904 0 -128 35.8203 -128 80h0.0195312c0 15.6699 -2.0791 7.25 85.0508 181.51c8.83984 17.6699 25.8799 26.4902 42.9199 26.4902c17.0498 0 34.1201 -8.83984 42.9395 -26.4902c86.3906 -172.779 85.0508 -165.33 85.0508 -181.51h0.0195312
c0 -44.1797 -57.3096 -80 -128 -80zM584.25 160c-5.84961 11.96 -52.4297 104.4 -72.25 144.04l-0.0195312 -0.0400391c-0.150391 0 -65.9609 -131.32 -72.1504 -144h144.42zM130.36 269.65c-8.37988 -2.80078 -17.4404 1.71973 -20.25 10.0996l-5.08008 15.1699
c-2.7998 8.37988 1.71973 17.4502 10.0996 20.25l125.95 42.1396c-0.480469 3.53027 -1.08008 7.03027 -1.08008 10.6904c0 44.1797 35.8203 80 80 80c29.96 0 55.7598 -16.6602 69.4697 -41.04l120.16 40.21c8.37988 2.7998 17.4502 -1.71973 20.25 -10.0996
l5.08008 -15.1699c2.7998 -8.38086 -1.71973 -17.4502 -10.0996 -20.25l-125.71 -42.0605c-3.39062 -31.9795 -25.3809 -58.0996 -55.1504 -67.5195v-308.07h183.99c8.83984 0 16 -7.16016 16 -16v-16c0 -8.83984 -7.16016 -16 -16 -16h-216c-8.83984 0 -16 7.16016 -16 16
v340.07c-13.2803 4.19922 -25.0605 11.5596 -34.3398 21.5098zM288 368c0 -17.6504 14.3604 -32 32 -32s32 14.3604 32 32s-14.3604 32 -32 32s-32 -14.3604 -32 -32zM0 16c0 15.6699 -2.05957 7.25 85.0596 181.51c8.84082 17.6699 25.8809 26.4902 42.9209 26.4902
c17.0596 0 34.1191 -8.83984 42.9492 -26.4902c86.3906 -172.779 85.0508 -165.33 85.0508 -181.51h0.0195312c0 -44.1797 -57.3096 -80 -128 -80s-128 35.8203 -128 80zM55.8301 32h144.43c-5.84961 11.96 -52.4297 104.4 -72.25 144.04l-0.0195312 -0.0400391
c-0.160156 0 -0.259766 -0.0195312 -0.290039 -0.0302734c-18.4404 -37.4102 -65.6807 -131.29 -71.8701 -143.97z" />
    <glyph glyph-name="balance-scale-right" unicode="&#xf516;" horiz-adv-x="640" 
d="M256 144c0 -44.1797 -57.3096 -80 -128 -80s-128 35.8203 -128 80h0.0195312c0 16.1797 -1.33984 8.73047 85.04 181.51c8.83008 17.6504 25.8906 26.4902 42.9502 26.4902c17.04 0 34.0898 -8.82031 42.9199 -26.4902c87.1299 -174.26 85.0508 -165.84 85.0508 -181.51
h0.0195312zM128 304.04c-19.8203 -39.6396 -66.4004 -132.08 -72.25 -144.04h144.42c-6.18945 12.6797 -72 144 -72.1504 144zM529.89 279.75c-2.80957 -8.37988 -11.8701 -12.9004 -20.2598 -10.0996l-131.29 43.9297
c-9.28027 -9.94043 -21.0498 -17.3105 -34.3398 -21.5098v-340.07c0 -8.83984 -7.16016 -16 -16 -16h-216c-8.83984 0 -16 7.16016 -16 16v16c0 8.83984 7.16016 16 16 16h183.99v308.07c-29.7705 9.41992 -51.7598 35.54 -55.1504 67.5195l-125.71 42.0605
c-8.37988 2.7998 -12.8994 11.8691 -10.0996 20.25l5.08008 15.1699c2.7998 8.37988 11.8701 12.8994 20.25 10.0996l120.17 -40.21c13.71 24.3799 39.5098 41.04 69.4697 41.04c44.1797 0 80 -35.8203 80 -80c0 -3.66016 -0.599609 -7.16016 -1.08008 -10.6904
l125.95 -42.1396c8.37988 -2.7998 12.8994 -11.8701 10.0996 -20.25zM320 336c17.6396 0 32 14.3604 32 32s-14.3604 32 -32 32s-32 -14.3604 -32 -32s14.3604 -32 32 -32zM639.98 16c0 -44.1797 -57.29 -80 -127.98 -80s-128 35.8203 -128 80h0.0195312
c0 16.1797 -1.33984 8.73047 85.04 181.51c8.83008 17.6504 25.8906 26.4902 42.9502 26.4902c17.04 0.00976562 34.0801 -8.82031 42.9199 -26.4902c87.1299 -174.26 85.0508 -165.84 85.0508 -181.51zM439.75 32h144.43c-6.19922 12.6797 -53.4297 106.56 -71.8701 143.97
c-0.0292969 0 -0.139648 0.0302734 -0.290039 0.0302734l-0.0195312 0.0400391c-19.8203 -39.6396 -66.4004 -132.08 -72.25 -144.04z" />
    <glyph glyph-name="robot" unicode="&#xf544;" horiz-adv-x="640" 
d="M192 40v48h64v-48h-64zM576 256c26.4922 0 48 -21.5078 48 -48v-128c0 -26.4922 -21.5078 -48 -48 -48h-32c0 -52.9834 -43.0166 -96 -96 -96h-256c-52.9834 0 -96 43.0166 -96 96h-32c-26.4922 0 -48 21.5078 -48 48v128c0 26.4922 21.5078 48 48 48h32
c0 52.9834 43.0166 96 96 96h104v72c0 13.2461 10.7539 24 24 24s24 -10.7539 24 -24v-72h104c52.9834 0 96 -43.0166 96 -96h32zM96 80v128h-32v-128h32zM496 32v224c0 26.4922 -21.5078 48 -48 48h-256c-26.4922 0 -48 -21.5078 -48 -48v-224
c0.0771484 -26.4561 21.5439 -47.9229 48 -48h256c26.4561 0.0771484 47.9229 21.5439 48 48zM576 80v128h-32v-128h32zM240 240c26.4902 0 48 -21.5098 48 -48c0 -26.4922 -21.5078 -48 -48 -48s-48 21.5078 -48 48s21.5078 48 48 48zM400 240
c26.4902 0 48 -21.5098 48 -48c0 -26.4922 -21.5078 -48 -48 -48s-48 21.5078 -48 48s21.5078 48 48 48zM384 40v48h64v-48h-64zM288 40v48h64v-48h-64z" />
    <glyph glyph-name="grin-tongue-wink" unicode="&#xf58b;" horiz-adv-x="496" 
d="M152 268c25.7002 0 55.9004 -16.9004 59.7998 -42.0996c0.799805 -5 -1.7002 -10 -6.09961 -12.4004c-5.7002 -3.09961 -11.2002 -0.599609 -13.7002 1.59961l-9.5 8.5c-14.7998 13.2002 -46.2002 13.2002 -61 0l-9.5 -8.5
c-3.7998 -3.39941 -9.2998 -4 -13.7002 -1.59961c-4.39941 2.40039 -6.89941 7.40039 -6.09961 12.4004c3.89941 25.1992 34.0996 42.0996 59.7998 42.0996zM328 320c44.2002 0 80 -35.7998 80 -80s-35.7998 -80 -80 -80s-80 35.7998 -80 80s35.7998 80 80 80zM328 192
c26.5 0 48 21.5 48 48s-21.5 48 -48 48s-48 -21.5 -48 -48s21.5 -48 48 -48zM328 264c13.2998 0 24 -10.7002 24 -24s-10.7002 -24 -24 -24s-24 10.7002 -24 24s10.7002 24 24 24zM248 440c137 0 248 -111 248 -248s-111 -248 -248 -248s-248 111 -248 248s111 248 248 248z
M312 40h0.0996094v43.7998l-17.6992 8.7998c-15.1006 7.60059 -31.5 -1.69922 -34.9004 -16.5l-2.7998 -12.0996c-2.10059 -9.2002 -15.2002 -9.2002 -17.2998 0l-2.80078 12.0996c-3.39941 14.8008 -19.8994 24 -34.8994 16.5l-17.7002 -8.7998v-42.7998
c0 -35.2002 28 -64.5 63.0996 -65c35.8008 -0.5 64.9004 28.4004 64.9004 64zM340.2 14.7002c64 33.3994 107.8 100.3 107.8 177.3c0 110.3 -89.7002 200 -200 200s-200 -89.7002 -200 -200c0 -77 43.7998 -143.9 107.8 -177.3
c-2.2002 8.09961 -3.7998 16.5 -3.7998 25.2998v43.5c-14.2002 12.4004 -24.4004 27.5 -27.2998 44.5c-1.7002 10 7.7998 18.4004 17.7002 15.2998c26 -8.2998 64.3994 -13.0996 105.6 -13.0996s79.7002 4.7998 105.6 13.0996c10 3.2002 19.4004 -5.39941 17.7002 -15.2998
c-2.89941 -17 -13.0996 -32.0996 -27.2998 -44.5v-43.5c0 -8.7998 -1.59961 -17.2002 -3.7998 -25.2998z" />
    <glyph glyph-name="atom" unicode="&#xf5d2;" horiz-adv-x="448" 
d="M223.961 224c17.6504 -0.0292969 31.9766 -14.3516 32.0137 -32c0 -17.6611 -14.3389 -32 -32 -32s-32 14.3389 -32 32c0 17.6562 14.3311 31.9922 31.9863 32zM439.194 320c18.7549 -33.4668 6.61426 -80.5977 -27.5166 -127.998
c34.1309 -47.4004 46.2715 -94.5352 27.5166 -128.002c-15.542 -27.7324 -49.5342 -41.3301 -93.1084 -41.3301c-9.61816 0.101562 -18.8994 0.753906 -28.2197 1.94336c-22.7812 -54.1875 -56.3418 -88.6133 -93.8662 -88.6133s-71.085 34.4258 -93.8662 88.6133
c-9.32031 -1.18945 -18.6016 -1.8418 -28.2197 -1.94336c-43.582 0 -77.5625 13.5938 -93.1084 41.3301c-18.7549 33.4668 -6.61426 80.6016 27.5166 128.002c-34.1309 47.4004 -46.2715 94.5312 -27.5166 127.998c15.542 27.7344 49.5342 41.3281 93.1084 41.3301
c9.61816 -0.100586 18.8994 -0.75293 28.2197 -1.94141c22.7812 54.1875 56.3418 88.6113 93.8662 88.6113s71.085 -34.4258 93.8662 -88.6133c9.32031 1.18945 18.6016 1.8418 28.2197 1.94336c43.582 0.00195312 77.5625 -13.5918 93.1084 -41.3301zM224 400
c-14.3857 0 -32.1562 -18.1465 -47.0898 -49.9512c15.9912 -4.43164 31.9531 -9.94141 47.0898 -16.2148c15.1377 6.27246 31.1006 11.7803 47.0918 16.2109c-14.9336 31.8066 -32.7061 49.9551 -47.0918 49.9551zM101.914 70.6699
c3.90918 0 8.33398 0.902344 12.4023 1.16602c-4.07715 15.9805 -7.33887 32.582 -9.61816 49.2031c-13.084 10.543 -25.2676 21.6162 -36.9971 33.623c-19.0195 -29.0176 -25.7002 -53.8984 -18.5459 -66.6621c5.98926 -10.6895 26.2051 -17.3301 52.7588 -17.3301z
M104.698 262.961c2.2793 16.6221 5.54199 33.2236 9.62012 49.2051c-4.06445 0.263672 -8.48535 1.16602 -12.3926 1.16602c-26.5615 -0.00195312 -46.7812 -6.64453 -52.7725 -17.332c-7.15234 -12.7637 -0.473633 -37.6445 18.5459 -66.6621
c11.7305 12.0068 23.9141 23.0801 36.999 33.623zM224 -16c14.3857 0 32.1562 18.1465 47.0898 49.9531c-15.9912 4.43164 -31.9531 9.94043 -47.0898 16.2129c-15.1377 -6.27246 -31.1006 -11.7803 -47.0918 -16.2109c14.9336 -31.8066 32.7061 -49.9551 47.0918 -49.9551z
M223.961 96c52.9854 0 96.0127 43.0156 96.0166 96c0 52.9834 -43.0156 96 -95.999 96c-52.9844 0 -96 -43.0166 -96 -96c0 -52.9785 43.0068 -95.9902 95.9824 -96zM398.847 88c7.15234 12.7637 0.473633 37.6445 -18.5459 66.6621
c-11.7305 -12.0068 -23.9141 -23.0801 -36.999 -33.623c-2.2793 -16.6211 -5.54102 -33.2227 -9.61816 -49.2031c4.06836 -0.263672 8.49316 -1.16602 12.4023 -1.16602c26.5537 0 46.7695 6.64062 52.7607 17.3301zM380.299 229.338
c19.0195 29.0176 25.7002 53.8984 18.5469 66.6621c-5.99023 10.6895 -26.2041 17.332 -52.7539 17.332c-3.91113 0 -8.33789 -0.904297 -12.4082 -1.16797c4.07812 -15.9805 7.33984 -32.582 9.61914 -49.2031c13.083 -10.543 25.2666 -21.6162 36.9961 -33.623z" />
    <glyph glyph-name="atom-alt" unicode="&#xf5d3;" horiz-adv-x="448" 
d="M397.881 192.168c53.6553 -83.4209 66.6865 -161.247 27.0938 -200.809c-61.0615 -60.9521 -182.778 15.3281 -200.966 26.999c-18.125 -11.624 -139.967 -87.9824 -200.997 -26.999c-39.5615 39.5615 -26.5303 117.403 27.0938 200.809
c-53.6553 83.4199 -66.6553 161.262 -27.0938 200.809c39.6562 39.5459 117.529 26.5146 200.997 -27.0469c83.4365 53.5928 161.372 66.6396 200.966 27.0469c39.5928 -39.5469 26.5615 -117.389 -27.0938 -200.809zM80.6982 234.714
c29.7959 37.5625 63.1621 70.9023 100.749 100.67c-41.7812 23.999 -102.124 45.9209 -124.467 23.6553c-16.75 -16.7334 -10.5625 -64.6543 23.7178 -124.325zM181.51 49.0771c-37.6592 29.6709 -71.0537 62.9883 -100.812 100.576
c-34.2803 -59.6865 -40.4678 -107.592 -23.7178 -124.326c16.8115 -16.7178 64.8115 -10.5312 124.529 23.75zM338.944 192.168c-32.6074 44.1885 -70.8926 82.6025 -114.967 115.356c-44.0684 -32.75 -82.3438 -71.165 -114.936 -115.356
c33.9678 -45.7178 69.9053 -81.4209 114.936 -114.842c45.4365 33.6709 81.2803 69.499 114.967 114.842zM256.04 192.184c0 -17.6865 -14.3604 -32.0791 -32.0469 -32.0791s-32.0459 14.3604 -32.0459 32.0469s14.3594 32.0459 32.0459 32.0459
c0.00488281 0 0.0107422 0.000976562 0.015625 0.000976562h0.00976562c17.6709 0 32.0176 -14.3447 32.0215 -32.0146v0zM367.288 149.653c-29.7578 -37.5879 -63.1523 -70.9053 -100.812 -100.576c59.7178 -34.2969 107.718 -40.4834 124.529 -23.75
c16.75 16.7344 10.5938 64.6396 -23.7178 124.326v0zM266.539 335.384c37.5889 -29.7656 70.9541 -63.1055 100.749 -100.67c34.3115 59.6709 40.4678 107.592 23.7178 124.325c-22.249 22.1719 -82.373 0.515625 -124.467 -23.6553z" />
    <glyph glyph-name="shapes" unicode="&#xf61f;" 
d="M480 160c17.6699 0 32 -14.3301 32 -32v-160c0 -17.6699 -14.3301 -32 -32 -32h-160c-17.6699 0 -32 14.3301 -32 32v160c0 17.6699 14.3301 32 32 32h160zM464 -16v128h-128v-128h128zM128 192c70.6904 0 128 -57.3096 128 -128s-57.3096 -128 -128 -128
s-128 57.3096 -128 128s57.3096 128 128 128zM128 -16c44.1104 0 80 35.8896 80 80s-35.8896 80 -80 80s-80 -35.8896 -80 -80s35.8896 -80 80 -80zM506.98 246.86c14.2598 -24.3799 -3.56055 -54.8604 -32.0703 -54.8604h-213.82
c-28.5098 0 -46.3301 30.4805 -32.0703 54.8604l106.91 182.85c7.12012 12.1904 19.6006 18.29 32.0703 18.29s24.9502 -6.09961 32.0703 -18.29zM280.61 240h174.779l-87.3896 149.47z" />
    <glyph glyph-name="envelope-open-dollar" unicode="&#xf657;" 
d="M230.72 214.28c-18.0996 4.88965 -30.7197 21 -30.7197 39.1699c0 21.7295 17.8203 39.2002 40 40.2998v10.25c0 4.41992 3.58008 8 8 8h16c4.41992 0 8 -3.58008 8 -8v-10.1699c10.29 -0.639648 20.0498 -3.87012 28.3496 -9.52051
c3.73047 -2.5498 4.24023 -7.90918 1.13086 -11.1895l-12.0703 -12.7305c-2.40039 -2.5498 -6.16016 -2.83984 -9.24023 -1.17969c-3.54004 1.91016 -7.62012 2.9502 -11.7695 2.9502h-26.3408c-5.55957 0 -10.0596 -3.90039 -10.0596 -8.7002
c0 -3.75 2.90039 -7.16016 7.08984 -8.2998l42.1904 -11.4404c18.0996 -4.88965 30.7197 -21 30.7197 -39.1699c0 -21.7295 -17.8203 -39.2002 -40 -40.2998v-10.25c0 -4.41992 -3.58008 -8 -8 -8h-16c-4.41992 0 -8 3.58008 -8 8v10.1699
c-10.29 0.639648 -20.0498 3.87012 -28.3496 9.52051c-3.73047 2.5498 -4.24023 7.90918 -1.13086 11.1895l12.0703 12.7305c2.40039 2.5498 6.16016 2.84961 9.24023 1.17969c3.54004 -1.91016 7.62012 -2.9502 11.7695 -2.9502h26.3408
c5.55957 0 10.0596 3.90039 10.0596 8.7002c0 3.75 -2.90039 7.16016 -7.08984 8.2998zM494.59 283.48c11.0303 -9.11035 17.4102 -22.6807 17.4102 -36.9902v-262.49c0 -26.5098 -21.4902 -48 -48 -48h-416c-26.5098 0 -48 21.4902 -48 48v262.52
c0.00390625 14.9326 6.80957 28.2656 17.5195 37.0703c1.33008 1.10059 13.6709 11.04 30.4805 24.5605v43.8496c0 26.5098 21.4902 48 48 48h66.1504c22.9492 19.3701 56.1992 48 93.8496 48c37.7695 0 71.2402 -28.8496 93.8701 -48h66.1299c26.5098 0 48 -21.4902 48 -48
v-43.8604c16.7305 -13.46 29.0703 -23.3994 30.5898 -24.6592zM96 352v-156.64c36.2598 -29.3301 78.6904 -63.6904 86.5898 -69.9707c17.5498 -14.0195 49.7197 -45.3896 73.4102 -45.3896c23.5996 0 55.25 30.8799 73.4102 45.3896
c7.89941 6.28027 50.3301 40.6299 86.5898 69.9502v156.66h-320zM464 -10v182.42c-38.8203 -31.3701 -95.6602 -77.4102 -104.66 -84.5596c-22.7002 -18.1406 -60.1299 -55.8604 -103.34 -55.8604c-43.4502 0 -81.29 38.2402 -103.34 55.8604
c-8.70996 6.92969 -65.7002 53.0996 -104.66 84.5801v-182.44c0 -3.30957 2.69043 -6 6 -6h404c3.30957 0 6 2.69043 6 6z" />
    <glyph glyph-name="envelope-open-text" unicode="&#xf658;" 
d="M494.59 283.48c11.0303 -9.11035 17.4102 -22.6807 17.4102 -36.9902v-262.49c0 -26.5098 -21.4902 -48 -48 -48h-416c-26.5098 0 -48 21.4902 -48 48v262.52c0.00390625 14.9326 6.80957 28.2656 17.5195 37.0703c1.33008 1.10059 13.6709 11.04 30.4805 24.5605
v43.8496c0 26.5098 21.4902 48 48 48h66.1504c22.9492 19.3701 56.1992 48 93.8496 48c37.7695 0 71.2402 -28.8496 93.8701 -48h66.1299c26.5098 0 48 -21.4902 48 -48v-43.8604c16.7305 -13.46 29.0703 -23.3994 30.5898 -24.6592zM96 352v-156.64
c36.2598 -29.3301 78.6904 -63.6904 86.5898 -69.9707c17.5498 -14.0195 49.7197 -45.3896 73.4102 -45.3896c23.5996 0 55.25 30.8799 73.4102 45.3896c7.89941 6.28027 50.3301 40.6299 86.5898 69.9502v156.66h-320zM464 -10v182.42
c-38.8203 -31.3701 -95.6602 -77.4102 -104.66 -84.5596c-22.7002 -18.1406 -60.1299 -55.8604 -103.34 -55.8604c-43.4502 0 -81.29 38.2402 -103.34 55.8604c-8.70996 6.92969 -65.7002 53.0996 -104.66 84.5801v-182.44c0 -3.30957 2.69043 -6 6 -6h404
c3.30957 0 6 2.69043 6 6zM176 256c-8.83984 0 -16 7.16016 -16 16v16c0 8.83984 7.16016 16 16 16h160c8.83984 0 16 -7.16016 16 -16v-16c0 -8.83984 -7.16016 -16 -16 -16h-160zM352 192c0 -8.83984 -7.16016 -16 -16 -16h-160c-8.83984 0 -16 7.16016 -16 16v16
c0 8.83984 7.16016 16 16 16h160c8.83984 0 16 -7.16016 16 -16v-16z" />
    <glyph glyph-name="bahai" unicode="&#xf666;" 
d="M496.25 245.48c17.54 -2.46094 21.6797 -26.2705 6.03027 -34.6709l-98.1602 -52.6592l74.4795 -83.54c10.9199 -12.2402 1.73047 -30.9307 -13.2793 -30.9307c-1.32031 0 -2.68066 0.150391 -4.07031 0.450195l-108.57 23.6504l4.11035 -112.55
c0.429688 -11.6504 -8.86035 -19.2207 -18.4102 -19.2207c-5.16016 0 -10.3896 2.20996 -14.2002 7.18066l-68.1797 88.8994l-68.1797 -88.8994c-3.81055 -4.9707 -9.04004 -7.18066 -14.2002 -7.18066c-9.54004 0 -18.8398 7.57031 -18.4102 19.2207l4.11035 112.55
l-108.57 -23.6504c-1.40039 -0.30957 -2.75 -0.450195 -4.07031 -0.450195c-15 0 -24.1992 18.6807 -13.2793 30.9307l74.4893 83.5293l-98.1592 52.6602c-15.6406 8.40039 -11.5 32.21 6.0293 34.6699l110 15.4404l-41.8193 104.34
c-5.26074 13.1201 4.97949 25.5498 16.8896 25.5498c3.18945 0 6.50977 -0.899414 9.68945 -2.91992l94.04 -59.8896l34.0908 107.189c2.70996 8.55078 10.0293 12.8203 17.3496 12.8203s14.6396 -4.26953 17.3496 -12.8203l34.1006 -107.18l94.04 59.8896
c3.16992 2.02051 6.49023 2.91992 9.68945 2.91992c11.9102 0 22.1504 -12.4395 16.8906 -25.5498l-41.8203 -104.34zM369.02 125.95l-40.8096 45.7695l53.7803 28.8506l18.4395 9.88965l-20.6602 2.90039l-60.2695 8.45996l22.9102 57.1699l7.85938 19.5996
l-17.6699 -11.25l-51.5195 -32.8096l-18.6797 58.7295l-6.40039 20.1406l-6.40039 -20.1406l-18.6797 -58.7295l-51.5195 32.8096l-17.6699 11.25l7.85938 -19.5996l22.9102 -57.1699l-60.2695 -8.45996l-20.6602 -2.90039l18.4395 -9.88965l53.7803 -28.8506
l-40.8096 -45.7695l-13.9902 -15.6904l20.3896 4.44043l59.4805 12.96l-2.25 -61.6699l-0.770508 -21.1406l12.8105 16.7002l37.3496 48.71l37.3496 -48.71l12.8105 -16.7002l-0.770508 21.1406l-2.25 61.6699l59.4805 -12.96l20.3896 -4.44043z" />
    <glyph glyph-name="lightbulb-on" unicode="&#xf672;" horiz-adv-x="640" 
d="M112 256c0 -13.2461 -10.7539 -24 -24 -24h-64c-13.2461 0 -24 10.7539 -24 24s10.7539 24 24 24h64c13.2461 0 24 -10.7539 24 -24zM107.08 160.78c3.4375 1.90234 7.44238 3.01562 11.6465 3.01562c13.2461 0 24 -10.7539 24 -24
c0 -8.72852 -4.66992 -16.376 -11.6465 -20.5762l-55.4199 -32c-3.60938 -2.17285 -7.8877 -3.4541 -12.4043 -3.4541c-13.2461 0 -24 10.7549 -24 24c0 9.04199 5.01074 16.9229 12.4043 21.0146zM131.08 392.78c7.39355 -4.0918 12.3535 -11.9424 12.3535 -20.9844
c0 -13.2451 -10.7539 -24 -24 -24c-4.5166 0 -8.74414 1.25098 -12.3535 3.42383l-55.4199 32c-7.39355 4.0918 -12.3535 11.9424 -12.3535 20.9844c0 13.2451 10.7539 24 24 24c4.5166 0 8.74414 -1.25098 12.3535 -3.42383zM520.94 348
c-13.2422 0.00488281 -24.0186 10.7412 -24.0186 23.9844c0 8.88379 4.83691 16.6455 12.0186 20.7959l55.4199 32c3.4375 1.90234 7.44238 3.01562 11.6465 3.01562c13.2461 0 24 -10.7539 24 -24c0 -8.72852 -4.6709 -16.376 -11.6465 -20.5762l-55.4199 -32
c-3.50879 -2.03711 -7.6084 -3.21973 -11.9541 -3.21973h-0.0458984zM616 280c13.2461 0 24 -10.7539 24 -24s-10.7539 -24 -24 -24h-64c-13.2461 0 -24 10.7539 -24 24s10.7539 24 24 24h64zM588.34 128.77c6.97656 -4.19922 11.5957 -11.8164 11.5957 -20.5459
c0 -13.2461 -10.7539 -24 -24 -24c-4.2041 0 -8.15723 1.08398 -11.5957 2.98633l-55.4199 32c-7.39355 4.0918 -12.3535 11.9424 -12.3535 20.9834c0 13.2461 10.7539 24 24 24c4.5166 0 8.74414 -1.25 12.3535 -3.42383zM320 448
c0.0234375 0 0.0126953 -0.0859375 0.0361328 -0.0859375c97.0986 0 175.931 -78.832 175.931 -175.93c0 -44.3447 -16.4424 -84.8789 -43.5566 -115.834c-16.6299 -18.9707 -42.7197 -58.7803 -52.4102 -92.1504v0h-48v0.0800781
c0.138672 4.94727 0.921875 9.75586 2.25 14.3096c5.69043 17.9902 23 64.8506 62.0898 109.46c19.6934 22.502 31.6592 52.0186 31.6592 84.2402c0 70.5957 -57.3145 127.91 -127.91 127.91h-0.0888672c-68.2803 0 -128.16 -54.3604 -127.94 -128
c0 -0.046875 0.0244141 -0.152344 0.0244141 -0.199219c0 -32.1396 11.9199 -61.5186 31.5762 -83.9512c39.3398 -44.9092 56.5898 -91.8496 62.1797 -109.659c1.37598 -4.44824 2.12793 -9.17383 2.12988 -14.0703v-0.120117h-48v0.0595703
c-9.66016 33.3604 -35.7793 73.1602 -52.4102 92.1602c-27.0918 30.8213 -43.5596 71.3115 -43.5596 115.531v0.249023c0 93 73.7197 176 176 176zM320 368c8.83105 0 16 -7.16895 16 -16s-7.16895 -16 -16 -16c-35.3018 -0.0439453 -63.9561 -28.6982 -64 -64
c0 -8.83105 -7.16895 -16 -16 -16s-16 7.16895 -16 16c0.0605469 52.9561 43.0439 95.9395 96 96zM240.06 -11.1904l-0.0595703 43.1904h160l-0.0595703 -43.1602c-0.0205078 -3.25781 -1.01367 -6.30664 -2.69043 -8.83984l-24.5 -36.8604
c-2.86719 -4.31152 -7.76074 -7.13965 -13.3223 -7.13965h-0.0175781h-78.8506c-5.55566 0.00488281 -10.4443 2.83105 -13.3096 7.13965l-24.5 36.8301c-1.68652 2.52832 -2.68164 5.57812 -2.69043 8.83984z" />
    <glyph glyph-name="dog" unicode="&#xf6d3;" horiz-adv-x="576" 
d="M576 344v-48c-0.0498047 -48.5459 -39.4541 -87.9502 -88 -88h-8v-240c0 -17.6611 -14.3389 -32 -32 -32h-80c-17.6611 0 -32 14.3389 -32 32v96h-128v-96c0 -17.6611 -14.3389 -32 -32 -32h-80c-17.6611 0 -32 14.3389 -32 32v168
c0.114258 14.6299 2.92285 28.709 7.87988 41.6299c-40.7988 7.60254 -71.8115 43.3975 -71.8799 86.3701c0 13.2461 10.7539 24 24 24s24 -10.7539 24 -24c0 -22.0762 17.9238 -40 40 -40h15.0596c21.3809 19.6904 49.6602 32 80.9404 32h120v176
c0 14.25 17.2197 21.3896 27.3096 11.3096l27.2803 -27.3096l-0.120117 -0.150391c0.530273 0 1 0.150391 1.53027 0.150391h76.2197h0.201172c21.8857 0 40.8027 -12.6084 49.8887 -31l0.530273 -1h49.1602c22.0762 0 40 -17.9238 40 -40zM432 179.27l-114.94 28.7305
h-133.06c-39.7148 -0.0498047 -71.9502 -32.2852 -72 -72v-152h48v128h224v-128h48v195.27zM528 336h-70.8398l-13.7803 27.5801c-1.31348 2.62402 -4.02734 4.42773 -7.15918 4.42773c-0.00195312 0 0.000976562 -0.0078125 -0.000976562 -0.0078125h-76.2197
c-4.41504 0 -8 -3.58496 -8 -8v-111.26l80 -20v27.2598h56c22.0762 0 40 17.9238 40 40v40zM432 336c0 -8.83105 -7.16895 -16 -16 -16s-16 7.16895 -16 16s7.16895 16 16 16s16 -7.16895 16 -16z" />
    <glyph glyph-name="dog-leashed" unicode="&#xf6d4;" horiz-adv-x="576" 
d="M576 344v-48c-0.0498047 -48.5459 -39.4541 -87.9502 -88 -88h-8v-240c0 -17.6611 -14.3389 -32 -32 -32h-80c-17.6611 0 -32 14.3389 -32 32v96h-128v-96c0 -17.6611 -14.3389 -32 -32 -32h-80c-17.6611 0 -32 14.3389 -32 32v168
c0.114258 14.6299 2.92285 28.709 7.87988 41.6299c-40.7988 7.60254 -71.8115 43.3975 -71.8799 86.3701c0 13.2461 10.7539 24 24 24s24 -10.7539 24 -24c0 -22.0762 17.9238 -40 40 -40h15c21.3896 19.6797 49.6699 32 81 32h55.5898l-201.17 150.37
c-3.90332 2.91895 -6.43262 7.57715 -6.43262 12.8223c0 3.58789 1.20508 6.90723 3.20312 9.57715l9.5791 12.8105c2.91992 3.90137 7.57617 6.42773 12.8193 6.42773c3.58496 0 6.90234 -1.20312 9.57129 -3.19824l236.84 -177.029v164.22
c0 14.25 17.2305 21.3896 27.3096 11.3096l27.29 -27.3096l-0.139648 -0.160156c0.530273 0 1 0.160156 1.54004 0.160156h76.2197h0.188477c21.8896 0 40.8096 -12.6074 49.9014 -31l0.530273 -1h49.1602c22.0762 0 40 -17.9238 40 -40zM280 208h-96
c-39.7148 -0.0498047 -71.9502 -32.2852 -72 -72v-152h48v128h120v96zM432 179.27l-104 26v-93.2695h56v-128h48v195.27zM528 336h-70.8398l-13.7803 27.5801c-1.31348 2.62402 -4.02734 4.42773 -7.15918 4.42773
c-0.00195312 0 0.000976562 -0.0078125 -0.000976562 -0.0078125h-76.2197c-4.41504 0 -8 -3.58496 -8 -8v-111.27l80 -20v27.2695h56c22.0762 0 40 17.9238 40 40v40zM432 336c0 -8.83105 -7.16895 -16 -16 -16s-16 7.16895 -16 16s7.16895 16 16 16s16 -7.16895 16 -16z
" />
    <glyph glyph-name="meteor" unicode="&#xf753;" 
d="M510.473 405.154c-8.49902 -28.2939 -29.1201 -94.6934 -52.3027 -153.188c14.5098 -5.52734 24.8291 -19.5771 24.8291 -36.0176c0 -6.44238 -1.62598 -12.543 -4.42676 -17.8828c-21.9961 -42.0889 -79.2969 -146.375 -136.38 -203.369
c-36.2998 -36.2764 -86.4199 -58.7246 -141.742 -58.7246c-55.3213 0 -105.498 22.4482 -141.798 58.7246c-78.2031 78.1943 -78.2031 205.369 0 283.563c57.1768 57.1035 161.251 114.285 203.461 136.283c5.33887 2.79102 11.4102 4.36914 17.8467 4.36914
c16.4092 0 30.4648 -10.2158 36.0498 -24.6641c58.2695 23.1074 124.851 43.792 153.252 52.292c3.05664 0.93457 6.30273 1.43848 9.66406 1.43848c18.2324 0 33.0342 -14.8027 33.0342 -33.0342c0 -3.41016 -0.526367 -6.69531 -1.4873 -9.79102v0zM393.37 221.268
l10.7168 24.9033c20.4961 47.8857 40.1797 107.488 52.3955 146.281c-38.8984 -12.2012 -98.6992 -31.9961 -146.284 -52.4004l-24.9014 -10.6865l-7.59277 25.9971c-1.18652 4 -2.31152 7.7959 -3.40527 11.3896c-39.8984 -21.2949 -132.568 -73.2891 -181.652 -122.378
c-59.3955 -59.4941 -59.3955 -156.187 0 -215.681c27.5898 -27.6221 65.7148 -44.7197 107.802 -44.7197s80.2539 17.0977 107.844 44.7197c48.4912 48.3857 98.5752 136.783 122.477 181.575c-3.59277 1 -7.4043 2.1084 -11.4033 3.2959zM312.011 135.979
c-0.00585938 -61.7988 -50.1797 -111.969 -111.979 -111.969c-61.8027 0 -111.979 50.1758 -111.979 111.979s50.1758 111.979 111.979 111.979c61.8008 -0.0117188 111.973 -50.1865 111.979 -111.988v0zM200.032 159.977
c-0.00195312 13.2422 -10.7529 23.9932 -23.9961 23.9932s-23.9951 -10.752 -23.9951 -23.9951s10.752 -23.9951 23.9951 -23.9951h0.0439453c13.2197 0 23.9531 10.7324 23.9531 23.9521c0 0.015625 -0.000976562 0.0302734 -0.000976562 0.0449219v0zM232.025 87.9844
c0 8.82812 -7.16797 15.9951 -15.9961 15.9951c-8.8291 0 -15.9971 -7.16797 -15.9971 -15.9971s7.16797 -15.9971 15.9971 -15.9971c8.81348 0.0341797 15.9629 7.18457 15.9961 15.999v0z" />
    <glyph glyph-name="stars" unicode="&#xf762;" 
d="M259.688 362.032c-2.18848 1.09375 -3.69238 3.34766 -3.69238 5.95898c0 2.61035 1.50391 4.87207 3.69238 5.96582l49.6455 20.7031l20.7041 49.6426c1.08887 2.19434 3.3457 3.7041 5.95898 3.7041c2.61426 0 4.87793 -1.50977 5.96777 -3.7041l20.7012 -49.6426
l49.6465 -20.7031c2.1875 -1.09375 3.69238 -3.34766 3.69238 -5.95898c0 -2.61035 -1.50488 -4.87207 -3.69238 -5.96582l-49.6465 -20.7012l-20.7012 -49.6445c-1.08984 -2.19434 -3.3457 -3.7041 -5.95996 -3.7041c-2.61328 0 -4.87793 1.50977 -5.9668 3.7041
l-20.7041 49.6445zM509.053 228.763c1.75 -0.875977 2.95215 -2.67871 2.95215 -4.76758c0 -2.08789 -1.20215 -3.89746 -2.95215 -4.77344l-39.7139 -16.5596l-16.5596 -39.71c-0.871094 -1.75586 -2.67578 -2.96387 -4.76758 -2.96387
c-2.09082 0 -3.90234 1.20801 -4.77344 2.96387l-16.5615 39.71l-39.7119 16.5596c-1.75 0.875977 -2.95215 2.67871 -2.95215 4.76758c0 2.08789 1.20215 3.89746 2.95215 4.77344l39.7119 16.5576l16.5615 39.7119c0.871094 1.75488 2.67676 2.96191 4.76758 2.96191
s3.90137 -1.20703 4.77344 -2.96191l16.5596 -39.7119zM364.308 180.695c18.7822 -2.70312 26.376 -25.9053 12.7822 -39.2012l-75.9092 -73.998l17.9072 -104.591c0.237305 -1.32031 0.336914 -2.64551 0.336914 -4.0332c0 -12.6162 -10.2422 -22.8584 -22.8584 -22.8584
c-3.88965 0 -7.55371 0.972656 -10.7607 2.68945l-93.8154 49.3887l-93.8154 -49.3887c-3.15332 -1.71484 -6.78906 -2.70312 -10.6279 -2.70312h-0.0605469c-13.3125 0 -25.1885 12 -22.5938 26.9053l18 104.591l-75.9082 73.998
c-13.6885 13.2959 -6.09473 36.498 12.6875 39.2012l104.815 15.2969l46.9082 95.2002c3.59473 7.5752 11.2979 12.7979 20.2344 12.7979c0.0888672 0 0.177734 0 0.266602 -0.000976562c0.0742188 0 0.131836 0.0214844 0.207031 0.0214844
c8.99902 0 16.7861 -5.23242 20.4805 -12.8184l46.9082 -95.2002zM249.492 84.1982l57.9072 56.2959l-79.8145 11.5928l-35.5947 72.2012l-35.5957 -72.2012l-79.8145 -11.5928l57.8145 -56.2959l-13.7197 -79.4033l71.3154 37.499l71.1895 -37.499z" />
    <glyph glyph-name="satellite" unicode="&#xf7bf;" 
d="M502.625 183.203c5.75195 -5.78516 9.30859 -13.7559 9.30859 -22.5498s-3.55664 -16.7744 -9.30859 -22.5596l-96.6855 -96.6875c-5.76172 -5.75586 -13.7158 -9.31641 -22.4951 -9.31641s-16.7422 3.56055 -22.5039 9.31641l-45.999 46
c9.99902 -48.2031 3.68652 -99 -20.125 -143.312c-2.60059 -4.82812 -7.70312 -8.11328 -13.5674 -8.11328c-0.107422 0 -0.200195 0.0175781 -0.307617 0.0195312h-0.0429688c-4.62891 0 -8.82324 1.87402 -11.8633 4.90625l-120.81 120.688l-21.9062 -21.8906
c0.71875 -2.60938 1.625 -5 1.625 -7.79688c0 -17.6611 -14.3389 -31.999 -31.999 -31.999c-17.6611 0 -32 14.3389 -32 32c0 17.6602 14.3389 31.999 32 31.999c2.78027 0 5.18652 -0.90625 7.78027 -1.60938l21.9062 21.9062l-120.686 120.703
c-7.625 7.59375 -6.3125 20.6875 3.09375 25.7969c29.7529 15.9951 63.7686 25.0723 99.8877 25.0723c14.6045 0 28.9287 -1.35645 42.7031 -4.18164l-45.3115 45.3125c-5.73828 5.78906 -9.28418 13.7549 -9.28418 22.542s3.5459 16.7627 9.28418 22.5518l96.7178 96.7031
c5.71777 5.74414 13.6309 9.30176 22.3682 9.30176c0.0429688 0 0.0878906 -0.00488281 0.130859 -0.00488281h0.0234375c8.79785 0 16.7764 -3.54883 22.5703 -9.29688l70.8105 -70.9062l70.7803 70.7969c5.77539 5.81152 13.7734 9.41113 22.6055 9.41113
s16.8379 -3.59961 22.6123 -9.41113l68.6865 -68.5938c5.79395 -5.7998 9.37891 -13.8066 9.37891 -22.6436c0 -8.83789 -3.58496 -16.8535 -9.37891 -22.6533l-70.8115 -70.7969zM224.13 160.094c-29.6768 29.6104 -70.625 47.9277 -115.817 47.9277
c-11.9277 0 -23.4727 -1.30176 -34.6797 -3.72461l194.59 -194.703c11.4062 53.4062 -4.40625 110.703 -44.0928 150.5zM150.725 319.5l59.4053 -59.4062l73.8115 73.8125l-59.4053 59.3906zM233.036 215.094c8.92188 -6.43262 17.1758 -13.3994 25 -21.0938
c7.68359 -7.80078 14.6484 -16.0225 21.0928 -24.9062l178.31 178.203l-46.124 46.1094zM457.313 160.5l-59.374 59.4062l-73.8115 -73.8125l59.4053 -59.3906z" />
    <glyph glyph-name="satellite-dish" unicode="&#xf7c0;" 
d="M315.023 -13.002c7.59277 -7.59277 6.31152 -20.7021 -3.09277 -25.7959c-29.79 -15.9951 -63.8379 -25.0713 -99.9902 -25.0713c-58.4326 0 -111.62 23.5508 -149.96 61.8672c-67.7051 67.7012 -79.8906 169.698 -36.8057 249.898
c2.62012 4.83008 7.73633 8.11328 13.6133 8.11328c0.102539 0 0.188477 -0.0175781 0.290039 -0.0195312c4.64062 0 8.84961 -1.87305 11.9043 -4.90625l120.663 -120.793l21.9023 21.9053c-0.6875 2.59375 -1.59375 5 -1.59375 7.79688
c0.00292969 17.6553 14.3379 31.9883 31.9941 31.9883c17.6572 0 31.9932 -14.3359 31.9932 -31.9941c0 -17.6572 -14.3359 -31.9932 -31.9932 -31.9932c-2.8125 0 -5.21777 0.90625 -7.81152 1.59375l-21.9014 -21.8896zM246.443 -12.2988l-194.68 194.697
c-11.373 -53.4043 4.40527 -110.699 44.21 -150.495c29.4365 -29.5977 70.1885 -47.9307 115.189 -47.9307c0.154297 0 0.320312 0.0253906 0.474609 0.0263672c11.9697 0.0302734 23.5391 1.30762 34.8057 3.70215zM511.984 144.697
c0.00390625 -0.152344 0.00683594 -0.305664 0.00683594 -0.458984c0 -8.96973 -7.2832 -16.252 -16.2529 -16.252c-0.0214844 0 -0.0419922 0.0078125 -0.0634766 0.0078125h-15.9961c-8.56934 0.0966797 -15.5303 6.9668 -15.7783 15.5
c-6.81152 138.089 -118.383 248.695 -256.543 256.398c-8.62305 0.5 -15.4033 7.18652 -15.4033 15.7959v16v0.0478516c0 8.97168 7.2832 16.2549 16.2549 16.2549c0.145508 0 0.28418 -0.00292969 0.429688 -0.00683594c163.374 -8.5 294.754 -139.902 303.346 -303.287z
M415.91 144.9c0.59375 -9.10938 -7.09277 -16.8125 -16.2158 -16.8125h-16.1846c-8.49805 0 -15.0908 6.70312 -15.8096 15.2031c-7.18555 85.4033 -75.0781 154.792 -160.343 160.698c-8.62305 0.5 -15.4033 7.20215 -15.4033 15.7959v16
c0 9.20215 7.68652 16.9053 16.7783 16.2021c110.478 -8.20312 198.866 -96.7002 207.178 -207.087z" />
    <glyph glyph-name="user-nurse" unicode="&#xf82f;" horiz-adv-x="448" 
d="M224 145c-70.6455 0 -128 57.3545 -128 128v110.18c0 13.7119 8.62988 25.4092 20.7598 29.96l84.7705 31.79c6.98438 2.61914 14.6035 4.05176 22.498 4.05176s15.457 -1.43262 22.4414 -4.05176l84.7705 -31.75c12.1309 -4.55078 20.7598 -16.248 20.7598 -29.96
v-0.0400391v-110.18c0 -70.6455 -57.3545 -128 -128 -128zM184 377.33v-16.6602c0 -2.75977 2.24023 -5 5 -5h21.6699v-21.6699c0 -2.75977 2.24023 -5 5 -5h16.6602c2.75977 0 5 2.24023 5 5v21.6699h21.6699c2.75977 0 5 2.24023 5 5v16.6602c0 2.75977 -2.24023 5 -5 5
h-21.6699v21.6699c0 2.75977 -2.24023 5 -5 5h-16.6602c-2.75977 0 -5 -2.24023 -5 -5v-21.6699h-21.6699c-2.75977 0 -5 -2.24023 -5 -5zM144 289v-16c0 -44.1533 35.8467 -80 80 -80s80 35.8467 80 80v16h-160zM319.41 129c71.5 -3.08984 128.59 -61.5898 128.59 -133.8
c-0.0166016 -32.1143 -26.0859 -58.1836 -58.2002 -58.2002h-331.6c-32.1143 0.0166016 -58.1836 26.0859 -58.2002 58.2002c0 72.21 57.0898 130.71 128.59 133.8l95.4102 -95.3896zM58.2002 -15h146.52l-93.1094 93.1104
c-35.1104 -9.41016 -63.6104 -46.5508 -63.6104 -82.9102c0.0107422 -5.625 4.5752 -10.1895 10.2002 -10.2002zM389.8 -15c5.625 0.0107422 10.1895 4.5752 10.2002 10.2002c0 36.3594 -28.5 73.5 -63.6104 82.9102l-93.1094 -93.1104h146.52z" />
    <glyph glyph-name="flux-capacitor" unicode="&#xf8ba;" horiz-adv-x="448" 
d="M448 328v-272c-0.0878906 -48.5273 -39.4727 -87.9121 -88 -88h-272c-48.5273 0.0878906 -87.9121 39.4727 -88 88v272c0.0878906 48.5273 39.4727 87.9121 88 88h272c48.5273 -0.0878906 87.9121 -39.4727 88 -88zM400 328c-0.0146484 22.0693 -17.9307 39.9854 -40 40
h-272c-22.0693 -0.0146484 -39.9854 -17.9307 -40 -40v-272c0.0146484 -22.0693 17.9307 -39.9854 40 -40h272c22.0693 0.0146484 39.9854 17.9307 40 40v272zM384 272c-0.0185547 -44.1445 -35.8555 -79.9814 -80 -80c-7.03418 0.233398 -13.8877 1.26953 -20.4375 3
l48.7188 48.7188c6.71875 6.51562 12.2188 19.4062 12.2188 28.7656c-0.00976562 22.0723 -17.9277 39.9902 -40 40c-9.375 0 -22.25 -5.46875 -28.7812 -12.2031l-51.7188 -51.7188l-51.7188 51.7344c-6.53125 6.73438 -19.4062 12.2031 -28.7812 12.2031
c-22.0693 -0.0146484 -39.9854 -17.9307 -40 -40c0 -9.375 5.5 -22.2656 12.2188 -28.7656l48.7188 -48.7344c-6.5498 -1.73047 -13.4033 -2.7666 -20.4375 -3c-44.1533 0 -80 35.8467 -80 80s35.8467 80 80 80s80 -35.8467 80 -80c0 44.1533 35.8467 80 80 80
s80 -35.8467 80 -80zM208 112v73.375l-75.3125 75.3125c-2.55176 2.99023 -4.16602 6.83203 -4.375 11.0156v0.0292969c0 8.81543 7.15625 15.9717 15.9707 15.9717c0.00976562 0 0.0195312 -0.000976562 0.0292969 -0.000976562
c4.17578 -0.224609 8.01074 -1.84277 11 -4.39062l68.6875 -68.6875l68.6875 68.6875c2.98926 2.54785 6.82422 4.16602 11 4.39062h0.0292969c8.81543 0 15.9717 -7.15625 15.9717 -15.9707c0 -0.00976562 -0.000976562 -0.0195312 -0.000976562 -0.0292969
c-0.208984 -4.18359 -1.82324 -8.02539 -4.375 -11.0156l-75.3125 -75.3125v-73.375c0 -8.83105 -7.16895 -16 -16 -16s-16 7.16895 -16 16zM304 111.891c0 -44.1533 -35.8467 -80 -80 -80s-80 35.8467 -80 80c0 23.9844 16.3125 54.0469 36.4375 67.1094l3.5625 -3.5625
v-63.4375c0 -22.0762 17.9238 -40 40 -40s40 17.9238 40 40v63.4375l3.5625 3.5625c20.125 -13.0625 36.4375 -43.125 36.4375 -67.1094z" />
    <glyph glyph-name="piano" unicode="&#xf8d4;" 
d="M476.62 177.69c21.0029 -10.501 35.3779 -32.1797 35.3799 -57.2402v-152.45c0 -17.6611 -14.3389 -32 -32 -32h-448c-17.6611 0 -32 14.3389 -32 32v295.56c0 101.86 82.5801 184.44 184.45 184.44h15.0996c101.87 0 184.45 -82.5801 184.45 -184.44
c0 -25.0625 14.375 -46.748 35.3799 -57.25zM464 -16v80h-32v-40c0 -4.41504 -3.58496 -8 -8 -8h-16c-4.41504 0 -8 3.58496 -8 8v40h-32v-40c0 -4.41504 -3.58496 -8 -8 -8h-16c-4.41504 0 -8 3.58496 -8 8v40h-96v-40c0 -4.41504 -3.58496 -8 -8 -8h-16
c-4.41504 0 -8 3.58496 -8 8v40h-32v-40c0 -4.41504 -3.58496 -8 -8 -8h-16c-4.41504 0 -8 3.58496 -8 8v40h-32v-40c0 -4.41504 -3.58496 -8 -8 -8h-16c-4.41504 0 -8 3.58496 -8 8v40h-32v-80h416zM464 112v8.4502c0 0.0195312 0.015625 0.0292969 0.015625 0.0488281
c0 6.25098 -3.61426 11.6631 -8.86523 14.2607l-57.2402 28.6201c-36.7373 18.2119 -61.9111 56.0332 -61.9111 99.7842c0 0.131836 0.000976562 0.263672 0.000976562 0.395508c0 75.2305 -61.21 136.44 -136.45 136.44h-15.0996
c-75.2402 0 -136.45 -61.21 -136.45 -136.44v-151.56h416z" />
    <glyph glyph-name="air-conditioner" unicode="&#xf8f4;" horiz-adv-x="576" 
d="M437.42 138.5c34.1191 -11.96 58.5928 -44.3486 58.5928 -82.5303c0 -3.79785 -0.243164 -7.53906 -0.712891 -11.21c-5.55957 -44.5801 -45.8496 -76.7598 -90.7695 -76.7598h-4.53027c-48.5684 0 -88 39.4316 -88 88v104h48v-104c0 -22.0762 17.9238 -40 40 -40
h6.21973c19.9805 0 38.1807 13.8799 41.2803 33.6104c2.87988 18.4092 -6.91992 34.2197 -21.8398 41.4697c-5.73047 2.78027 -9.66016 8.25 -9.66016 14.6299v17.6201c0.0136719 8.87402 7.22754 16.0693 16.1045 16.0693c1.8623 0 3.65137 -0.316406 5.31543 -0.899414z
M216 24v136h48v-136c0 -48.5684 -39.4316 -88 -88 -88h-4.53027c-44.9199 0 -85.21 32.1797 -90.7695 76.7598c-0.469727 3.6709 -0.734375 7.2959 -0.734375 11.0928c0 38.1816 24.4951 70.6875 58.6143 82.6475c1.66406 0.583008 3.45801 0.904297 5.32031 0.904297
c8.87695 0 16.0859 -7.2002 16.0996 -16.0742v-17.6201c0 -6.37988 -3.92969 -11.8496 -9.66016 -14.6299c-14.9199 -7.25 -24.7197 -23.0605 -21.8398 -41.4697c3.09961 -19.7305 21.2803 -33.6104 41.2803 -33.6104h6.21973c22.0762 0 40 17.9238 40 40zM544 448
c17.6611 0 32 -14.3389 32 -32v-192c0 -17.6611 -14.3389 -32 -32 -32h-512c-17.6611 0 -32 14.3389 -32 32v192c0 17.6611 14.3389 32 32 32h512zM528 240v160h-480v-160h480zM112 272c-8.83105 0 -16 7.16895 -16 16v16c0 8.83105 7.16895 16 16 16h352
c8.83105 0 16 -7.16895 16 -16v-16c0 -8.83105 -7.16895 -16 -16 -16h-352z" />
    <glyph glyph-name="alien" unicode="&#xf8f5;" horiz-adv-x="448" 
d="M224 448c123.719 0 224 -88.0293 224 -232.451c0 -111.777 -134.215 -224.598 -194.863 -269.873c-8.12109 -6.06152 -18.2744 -9.65234 -29.1777 -9.65234s-20.9746 3.59082 -29.0957 9.65234c-60.6484 45.2754 -194.863 158.096 -194.863 269.873
c0 144.422 100.281 232.451 224 232.451zM223.578 -15.8594c110.785 82.0723 176.422 168.58 176.422 231.408c0 110.326 -70.7285 184.451 -176 184.451s-176 -74.125 -176 -184.451c0 -62.8281 65.6367 -149.336 175.578 -231.408zM129.812 224
c44.1523 0 80 -35.8477 80 -80c0 -8.83008 -7.16992 -16 -16 -16h-32c-44.1533 0 -80 35.8467 -80 80c0 8.83008 7.16992 16 16 16h32zM353.812 224c8.83008 0 16 -7.16992 16 -16c0 -44.1533 -35.8467 -80 -80 -80h-32c-8.83008 0 -16 7.16992 -16 16
c0 44.1523 35.8477 80 80 80h32z" />
    <glyph glyph-name="alien-monster" unicode="&#xf8f6;" horiz-adv-x="576" 
d="M560 320c8.83008 0 16 -7.16992 16 -16v-128c0 -8.83008 -7.16992 -16 -16 -16h-48v-80c0 -8.83008 -7.16992 -16 -16 -16h-48v-80c0 -8.83008 -7.16992 -16 -16 -16h-96c-8.83008 0 -16 7.16992 -16 16v16c0 8.83008 7.16992 16 16 16h64v48h-224v-48h64
c8.83008 0 16 -7.16992 16 -16v-16c0 -8.83008 -7.16992 -16 -16 -16h-96c-8.83008 0 -16 7.16992 -16 16v80h-48c-8.83008 0 -16 7.16992 -16 16v80h-48c-8.83008 0 -16 7.16992 -16 16v128c0 8.83008 7.16992 16 16 16h16c8.83008 0 16 -7.16992 16 -16v-96h48v64
c0 8.83008 7.16992 16 16 16h32v64h-32c-8.83008 0 -16 7.16992 -16 16v32c0 8.83008 7.16992 16 16 16h16c8.83008 0 16 -7.16992 16 -16v-16h32c8.83008 0 16 -7.16992 16 -16v-48h192v48c0 8.83008 7.16992 16 16 16h32v16c0 8.83008 7.16992 16 16 16h16
c8.83008 0 16 -7.16992 16 -16v-32c0 -8.83008 -7.16992 -16 -16 -16h-32v-64h32c8.83008 0 16 -7.16992 16 -16v-64h48v96c0 8.83008 7.16992 16 16 16h16zM464 112v48h-32v80h-48v32h-192v-32h-48v-80h-32v-48h352zM240 224c8.83008 0 16 -7.16992 16 -16v-48
c0 -8.83008 -7.16992 -16 -16 -16h-32c-8.83008 0 -16 7.16992 -16 16v48c0 8.83008 7.16992 16 16 16h32zM368 224c8.83008 0 16 -7.16992 16 -16v-48c0 -8.83008 -7.16992 -16 -16 -16h-32c-8.83008 0 -16 7.16992 -16 16v48c0 8.83008 7.16992 16 16 16h32z" />
    <glyph glyph-name="bed-alt" unicode="&#xf8f7;" 
d="M80 288v-32h-48v128c0 17.6611 14.3389 32 32 32h384c17.6611 0 32 -14.3389 32 -32v-128h-48v32c0 17.6611 -14.3389 32 -32 32h-96c-17.6611 0 -32 -14.3389 -32 -32v-32h-32v32c0 17.6611 -14.3389 32 -32 32h-96c-17.6611 0 -32 -14.3389 -32 -32zM448 224
c35.3223 0 64 -28.6777 64 -64v-176c0 -8.83105 -7.16895 -16 -16 -16h-16c-8.83105 0 -16 7.16895 -16 16v48h-416v-48c0 -8.83105 -7.16895 -16 -16 -16h-16c-8.83105 0 -16 7.16895 -16 16v176c0 35.3223 28.6777 64 64 64h384zM464 80v80c0 8.83105 -7.16895 16 -16 16
h-384c-8.83105 0 -16 -7.16895 -16 -16v-80h416z" />
    <glyph glyph-name="bed-bunk" unicode="&#xf8f8;" horiz-adv-x="576" 
d="M152 304c-39.7383 0 -72 32.2617 -72 72s32.2617 72 72 72s72 -32.2617 72 -72s-32.2617 -72 -72 -72zM152 400c-13.2461 0 -24 -10.7539 -24 -24s10.7539 -24 24 -24s24 10.7539 24 24s-10.7539 24 -24 24zM464 448c61.8799 0 112 -50.1396 112 -128v-368
c0 -8.83105 -7.16895 -16 -16 -16h-16c-8.83105 0 -16 7.16895 -16 16v32h-480v-32c0 -8.83105 -7.16895 -16 -16 -16h-16c-8.83105 0 -16 7.16895 -16 16v480c0 8.83105 7.16895 16 16 16h16c8.83105 0 16 -7.16895 16 -16v-144h208v144c0 8.83105 7.16895 16 16 16h192z
M528 32v48c-0.0380859 35.3047 -28.6953 63.9619 -64 64h-160v-112h224zM528 171.74v68.2598h-480v-208h208v144c0 8.83105 7.16895 16 16 16h192c23.7695 -0.00683594 45.9131 -7.54102 64 -20.2598zM528 288v48c-0.0380859 35.3047 -28.6953 63.9619 -64 64h-160v-112h224
zM152 48c-39.7383 0 -72 32.2617 -72 72s32.2617 72 72 72s72 -32.2617 72 -72s-32.2617 -72 -72 -72zM152 144c-13.2461 0 -24 -10.7539 -24 -24s10.7539 -24 24 -24s24 10.7539 24 24s-10.7539 24 -24 24z" />
    <glyph glyph-name="bed-empty" unicode="&#xf8f9;" horiz-adv-x="640" 
d="M528 320c61.8145 0 112 -50.1855 112 -112v-192c0 -8.83105 -7.16895 -16 -16 -16h-16c-8.83105 0 -16 7.16895 -16 16v48h-544v-48c0 -8.83105 -7.16895 -16 -16 -16h-16c-8.83105 0 -16 7.16895 -16 16v352c0 8.83105 7.16895 16 16 16h16
c8.83105 0 16 -7.16895 16 -16v-48h480zM160 112v160h-112v-160h112zM592 112v96c-0.0380859 35.3047 -28.6953 63.9619 -64 64h-320v-160h384z" />
    <glyph glyph-name="bell-on" unicode="&#xf8fa;" horiz-adv-x="640" 
d="M520.94 348c-13.2422 0.00488281 -24.0186 10.7412 -24.0186 23.9844c0 8.88379 4.83691 16.6455 12.0186 20.7959l55.4199 32c3.4375 1.90234 7.44238 3.01562 11.6465 3.01562c13.2461 0 24 -10.7539 24 -24c0 -8.72852 -4.6709 -16.376 -11.6465 -20.5762
l-55.4199 -32c-3.50879 -2.03711 -7.6084 -3.21973 -11.9541 -3.21973h-0.0458984zM112 256c0 -13.2461 -10.7539 -24 -24 -24h-64c-13.2461 0 -24 10.7539 -24 24s10.7539 24 24 24h64c13.2461 0 24 -10.7539 24 -24zM51.6602 383.22
c-7.39355 4.0918 -12.3535 11.9424 -12.3535 20.9844c0 13.2451 10.7539 24 24 24c4.5166 0 8.74414 -1.25098 12.3535 -3.42383l55.4199 -32c7.39355 -4.0918 12.3535 -11.9424 12.3535 -20.9844c0 -13.2451 -10.7539 -24 -24 -24
c-4.5166 0 -8.74414 1.25098 -12.3535 3.42383zM616 280c13.2461 0 24 -10.7539 24 -24s-10.7539 -24 -24 -24h-64c-13.2461 0 -24 10.7539 -24 24s10.7539 24 24 24h64zM479.9 240c0 -102.3 36.1592 -133.53 55.4697 -154.3
c5.3457 -5.59668 8.62988 -13.1836 8.62988 -21.5273v-0.172852c-0.0996094 -16.4102 -12.9697 -32 -32.0996 -32h-383.811c-19.0898 0 -31.9697 15.5898 -32.0898 32c0 0.0634766 -0.000976562 0.132812 -0.000976562 0.196289c0 8.33594 3.28125 15.9111 8.62109 21.5039
c19.3203 20.7695 55.4697 52 55.4697 154.3c0 77.7002 54.4697 139.91 127.91 155.16v20.8398c-0.00976562 0.331055 -0.0146484 0.663086 -0.0146484 0.996094c0 17.6611 14.3389 32 32 32s32 -14.3389 32 -32c0 -0.333008 -0.00488281 -0.665039 -0.015625 -0.996094
v-20.8398c73.4707 -15.25 127.931 -77.46 127.931 -155.16zM163.53 80h312.939c-21.2197 27.9502 -44.4102 74.3096 -44.5293 159.42c0 0.200195 0.0595703 0.379883 0.0595703 0.580078c0 61.8145 -50.1855 112 -112 112s-112 -50.1855 -112 -112
c0 -0.200195 0.0595703 -0.379883 0.0595703 -0.580078c-0.119141 -85.0898 -23.3096 -131.42 -44.5293 -159.42zM320 -64c-35.3223 0 -64 28.6777 -64 64h128c0 -35.3223 -28.6777 -64 -64 -64z" />
    <glyph glyph-name="blinds" unicode="&#xf8fb;" 
d="M512 416c-0.0214844 -6.78516 -4.28418 -12.5732 -10.2803 -14.8496l10.1807 -111.7c0.0390625 -0.459961 0.0703125 -0.901367 0.0703125 -1.37109c0 -6.60254 -4.00781 -12.2764 -9.7207 -14.7188l9.63965 -95.7705
c0.0507812 -0.515625 0.0869141 -1.01562 0.0869141 -1.54492c0 -6.5918 -4.0127 -12.2539 -9.72656 -14.6748l9.63965 -95.7803c0.0507812 -0.515625 0.0869141 -1.01562 0.0869141 -1.54492c0 -6.5918 -4.0127 -12.2539 -9.72656 -14.6748l9.63965 -95.7803
c0.0527344 -0.52832 0.0810547 -1.04785 0.0810547 -1.58984c0 -8.83105 -7.16895 -16 -16 -16h-0.0810547h-479.81c-0.0273438 0 -0.0527344 -0.0166016 -0.0800781 -0.0166016c-8.83008 0 -16 7.16992 -16 16c0 0.541992 0.0273438 1.07812 0.0800781 1.60645
l9.63965 95.7803c-5.71387 2.42383 -9.71582 8.06445 -9.71582 14.6582c0 0.526367 0.0263672 1.04785 0.0761719 1.56152l9.63965 95.7803c-5.71387 2.42383 -9.71582 8.06445 -9.71582 14.6582c0 0.526367 0.0263672 1.04785 0.0761719 1.56152l9.63965 95.7705
c-5.71289 2.44238 -9.70996 8.09375 -9.70996 14.6953c0 0.469727 0.0205078 0.93457 0.0605469 1.39453l10.21 111.7c-5.99609 2.27637 -10.2588 8.06445 -10.2803 14.8496v16c0 8.83105 7.16895 16 16 16h480c8.83105 0 16 -7.16895 16 -16v-16zM58.3799 400l-7.32031 -80
h68.9404v80h-61.6201zM51.3799 -16h409.23l-6.44043 64h-396.34zM454.17 272h-254.17v48h260.94l-7.32031 80h-285.62v-182.66c14.3711 -8.29688 23.9482 -23.8271 23.9482 -41.5996c0 -26.4922 -21.5078 -48 -48 -48c-26.4912 0 -48 21.5078 -48 48
c0 17.7725 9.68066 33.3027 24.0518 41.5996v54.6602h-62.1699l-6.4502 -64h19.4004c-4.33203 -9.79004 -6.77734 -20.623 -6.77734 -32.0098c0 -5.47656 0.556641 -10.8252 1.61719 -15.9902h-7.79004l-6.4502 -64h409.23l-6.44043 64h-231.79
c1.06055 5.16602 1.58008 10.5195 1.58008 15.9971c0 11.3867 -2.40723 22.2139 -6.74023 32.0029h243.391z" />
    <glyph glyph-name="blinds-open" unicode="&#xf8fc;" 
d="M16 96c-8.82617 0.00488281 -15.9873 7.1748 -15.9873 16.0029c0 1.7666 0.287109 3.4668 0.817383 5.05664l5.33984 16c2.11914 6.35547 8.11621 10.9404 15.1797 10.9404h42.6504c0.0615234 -18.0254 6.18945 -34.709 16.4004 -48h-64.4004zM505.82 133.06l5.35938 -16
c0.530273 -1.58984 0.820312 -3.29297 0.820312 -5.05957c0 -8.83105 -7.16895 -16 -16 -16h-288.41c10.2139 13.29 16.3457 29.9736 16.4102 48h266.65c7.05957 -0.00390625 13.0518 -4.58691 15.1699 -10.9404zM505.82 -26.9404l5.35938 -16
c0.530273 -1.58984 0.820312 -3.29297 0.820312 -5.05957c0 -8.83105 -7.16895 -16 -16 -16h-480c-8.82617 0.00488281 -15.9873 7.1748 -15.9873 16.0029c0 1.7666 0.287109 3.4668 0.817383 5.05664l5.33984 16c2.11914 6.35547 8.11621 10.9404 15.1797 10.9404h469.301
c7.05957 -0.00390625 13.0518 -4.58691 15.1699 -10.9404zM505.82 293.06l5.35938 -16c0.530273 -1.58984 0.820312 -3.29297 0.820312 -5.05957c0 -8.83105 -7.16895 -16 -16 -16h-296v48h290.65c7.05957 -0.00390625 13.0518 -4.58691 15.1699 -10.9404zM496 448
c8.83105 0 16 -7.16895 16 -16v-16c0 -8.83105 -7.16895 -16 -16 -16h-328v-214.66c14.3711 -8.29688 23.9482 -23.8271 23.9482 -41.5996c0 -26.4922 -21.5078 -48 -48 -48c-26.4912 0 -48 21.5078 -48 48c0 17.7725 9.68066 33.3027 24.0518 41.5996v70.6602h-104
c-8.82617 0.00488281 -15.9873 7.1748 -15.9873 16.0029c0 1.7666 0.287109 3.4668 0.817383 5.05664l5.33984 16c2.11914 6.35547 8.11621 10.9404 15.1797 10.9404h98.6504v96h-104c-8.83105 0 -16 7.16895 -16 16v16c0 8.83105 7.16895 16 16 16h480z" />
    <glyph glyph-name="blinds-raised" unicode="&#xf8fd;" 
d="M512 416c-0.0214844 -6.78516 -4.28418 -12.5732 -10.2803 -14.8496l10.1807 -111.7c0.0390625 -0.459961 0.0703125 -0.901367 0.0703125 -1.37109c0 -6.60254 -4.00781 -12.2764 -9.7207 -14.7188l9.63965 -95.7705
c0.0527344 -0.52832 0.0810547 -1.04785 0.0810547 -1.58984c0 -8.83105 -7.16895 -16 -16 -16h-0.0810547h-295.89v48h260.62l-6.4502 64h-254.17v48h260.94l-7.32031 80h-285.62v-374.66c14.3711 -8.29688 23.9482 -23.8271 23.9482 -41.5996
c0 -26.4922 -21.5078 -48 -48 -48c-26.4912 0 -48 21.5078 -48 48c0 17.7725 9.68066 33.3027 24.0518 41.5996v134.66h-103.92c-0.0273438 0 -0.0527344 -0.0166016 -0.0800781 -0.0166016c-8.83008 0 -16 7.16992 -16 16c0 0.541992 0.0273438 1.07812 0.0800781 1.60645
l9.63965 95.7705c-5.71289 2.44238 -9.70996 8.09375 -9.70996 14.6953c0 0.469727 0.0205078 0.93457 0.0605469 1.39453l10.21 111.7c-5.99609 2.27637 -10.2588 8.06445 -10.2803 14.8496v16c0 8.83105 7.16895 16 16 16h480c8.83105 0 16 -7.16895 16 -16v-16z
M51.3799 208h68.6201v64h-62.1699zM120 320v80h-61.6201l-7.32031 -80h68.9404z" />
    <glyph glyph-name="camera-home" unicode="&#xf8fe;" horiz-adv-x="448" 
d="M224 288c8.83105 0 16 -7.16895 16 -16s-7.16895 -16 -16 -16c-17.6611 0 -32 -14.3389 -32 -32c0 -8.83105 -7.16895 -16 -16 -16s-16 7.16895 -16 16c0.0664062 35.292 28.708 63.9336 64 64zM224 368c79.4102 0 144 -64.5898 144 -144s-64.5898 -144 -144 -144
s-144 64.5898 -144 144s64.5898 144 144 144zM224 128c52.9834 0 96 43.0166 96 96s-43.0166 96 -96 96s-96 -43.0166 -96 -96s43.0166 -96 96 -96zM384 448c35.3223 0 64 -28.6777 64 -64v-320c0 -35.3223 -28.6777 -64 -64 -64h-17.4297l4.84961 -2.83008
c6.92969 -4.32031 12.5801 -14.4502 12.5801 -22.6201v-11.8799c-0.00585938 -14.7031 -11.9316 -26.6426 -26.6299 -26.6699h-266.67c-14.7168 0.00585938 -26.665 11.9531 -26.6699 26.6699v11.9004c0 8.14941 5.59961 18.2695 12.5 22.5996l4.88965 2.83008h-17.4199
c-35.3223 0 -64 28.6777 -64 64v320c0 35.3223 28.6777 64 64 64h320zM400 64v320c0 8.83105 -7.16895 16 -16 16h-320c-8.83105 0 -16 -7.16895 -16 -16v-320c0 -8.83105 7.16895 -16 16 -16h320c8.83105 0 16 7.16895 16 16z" />
    <glyph glyph-name="caravan" unicode="&#xf8ff;" horiz-adv-x="640" 
d="M624 112c8.83105 0 16 -7.16895 16 -16v-16c0 -8.83105 -7.16895 -16 -16 -16h-336c0 -52.9834 -43.0166 -96 -96 -96s-96 43.0166 -96 96c-52.9834 0 -96 43.0166 -96 96v192c0 52.9834 43.0166 96 96 96h320c88.3066 0 160 -71.6934 160 -160v-176h48zM192 16
c26.4795 0.0273438 47.9727 21.5205 48 48c0 26.4922 -21.5078 48 -48 48s-48 -21.5078 -48 -48s21.5078 -48 48 -48zM432 240v64h-64v-192h64v96c-8.83105 0 -16 7.16895 -16 16s7.16895 16 16 16zM528 112v176c-0.0664062 61.7842 -50.2158 111.934 -112 112h-320
c-26.4795 -0.0273438 -47.9727 -21.5205 -48 -48v-192c0.0273438 -26.4795 21.5205 -47.9727 48 -48h13.3096c16.6904 28.5703 47.25 48 82.6904 48s66.0498 -19.4297 82.6904 -48h45.3096v200c0 22.0762 17.9238 40 40 40h80c22.0762 0 40 -17.9238 40 -40v-200h48z
M256 352c17.6611 0 32 -14.3389 32 -32v-64c0 -17.6611 -14.3389 -32 -32 -32h-128c-17.6611 0 -32 14.3389 -32 32v64c0 17.6611 14.3389 32 32 32h128z" />
  </font>
</defs>
</svg>
