<?xml version="1.0" standalone="no"?>
<!DOCTYPE svg PUBLIC "-//W3C//DTD SVG 1.1//EN" "http://www.w3.org/Graphics/SVG/1.1/DTD/svg11.dtd" >
<svg xmlns="http://www.w3.org/2000/svg" xmlns:xlink="http://www.w3.org/1999/xlink" version="1.1">
<metadata>
Created by FontForge 20201107 at Wed Aug  4 12:37:06 2021
 By Robert Madole
Copyright (c) Font Awesome
</metadata>
<!-- Font Awesome Pro 5.15.4 by @fontawesome - https://fontawesome.com License - https://fontawesome.com/license (Commercial License) --><defs>
<font id="FontAwesome5Duotone-Solid" horiz-adv-x="512" >
  <font-face 
    font-family="Font Awesome 5 Duotone Solid"
    font-weight="900"
    font-stretch="normal"
    units-per-em="512"
    panose-1="2 0 5 3 0 0 0 0 0 0"
    ascent="448"
    descent="-64"
    bbox="-0.556641 -65.8135 640.032 448.044"
    underline-thickness="25"
    underline-position="-50"
    unicode-range="U+0020-10F8FF"
  />
    <missing-glyph />
    <glyph glyph-name="bolt-primary" unicode="&#xf0e7;" horiz-adv-x="320" 
d="M319.93 263.93c-0.0107422 -4.33398 -1.19141 -8.42578 -3.21973 -11.9297l-176 -304c-4.16699 -7.11328 -11.8916 -11.8945 -20.7236 -11.8945c-13.2461 0 -24 10.7539 -24 24c0 1.85059 0.226562 3.66406 0.624023 5.39453l46.0996 194.5l37.9004 128h115.39
c13.2129 -0.0380859 23.9287 -10.7773 23.9287 -24c0 -0.0234375 0.000976562 -0.0458984 0.000976562 -0.0703125z" />
    <glyph glyph-name="sun-primary" unicode="&#xf185;" 
d="M352 192c0 -52.9834 -43.0166 -96 -96 -96s-96 43.0166 -96 96s43.0166 96 96 96c52.9453 -0.0830078 95.917 -43.0547 96 -96z" />
    <glyph glyph-name="snowflake-primary" unicode="&#xf2dc;" horiz-adv-x="448" 
d="M446 81.9502l-0.0898438 -0.150391l-15.4697 -26.7998c-2.6582 -4.64746 -7.66406 -7.78223 -13.3965 -7.78223c-2.78613 0 -5.40723 0.767578 -7.66406 2.0625l-153.38 88.5195l-0.200195 -185.8c0 -8.83105 -7.16895 -16 -16 -16h-32c-8.83008 0 -16 7.16895 -16 16
l0.100586 185.7l-153.25 -88.5c-2.26172 -1.28906 -4.87695 -2.02539 -7.66309 -2.02539c-5.73535 0 -10.7529 3.09277 -13.4375 7.72559l-15.5498 26.7998c-1.28809 2.26074 -2.02441 4.87695 -2.02441 7.66309c0 5.73438 3.0918 10.7529 7.72461 13.4365l154.46 89.2002
l-154.29 89.2002c-4.64941 2.65918 -7.78613 7.66797 -7.78613 13.4033c0 2.7832 0.764648 5.40137 2.05566 7.65625l15.5303 26.7402c2.6582 4.63477 7.65527 7.75977 13.377 7.75977c2.76953 0 5.37598 -0.758789 7.62305 -2.04004h0.0498047l153.28 -88.5195v185.8
c0 8.83105 7.16895 16 16 16h32c8.83105 0 16 -7.16895 16 -16v-185.8l153.3 88.5c2.26074 1.28809 4.87695 2.02441 7.66309 2.02441c5.73438 0 10.7529 -3.0918 13.4375 -7.72461l15.5 -26.7998c1.28809 -2.26074 2.02441 -4.87695 2.02441 -7.66309
c0 -5.73438 -3.09277 -10.7529 -7.72461 -13.4375l-154.351 -89.0996l154.49 -89.2002c4.5957 -2.63867 7.69336 -7.59473 7.69336 -13.2695c0 -2.75488 -0.755859 -5.34668 -2.0332 -7.58008z" />
    <glyph glyph-name="cloud-moon-primary" unicode="&#xf6c3;" horiz-adv-x="576" 
d="M416 16c0 -44.1533 -35.8467 -80 -80 -80h-240c-52.9834 0 -96 43.0166 -96 96c0 41.9004 27.0996 77.2002 64.5996 90.2998c-0.0996094 1.90039 -0.599609 3.7002 -0.599609 5.7002c0 52.9834 43.0166 96 96 96c36.2002 0 67.4004 -20.2998 83.7002 -49.9004
c11.4961 11.1641 27.1777 18.042 44.4531 18.042c35.2285 0 63.8301 -28.6016 63.8301 -63.8301c0 -12.0479 -3.37207 -23.3926 -9.18359 -33.0117c40.9004 -3.5 73.2002 -37.3994 73.2002 -79.2998z" />
    <glyph glyph-name="cloud-sun-primary" unicode="&#xf6c4;" horiz-adv-x="640" 
d="M575.2 122.36c37.5996 -13 64.7998 -48.29 64.7998 -90.3799c0 -52.9844 -43.0166 -96 -96 -96h-272c-52.9834 0 -96 43.0156 -96 96c0 50.5898 39.2998 91.5791 88.9004 95.2793c-0.200195 2.90039 -0.900391 5.7002 -0.900391 8.7002c0 61.8145 50.1855 112 112 112
c45.4004 0 84.2998 -27.2002 101.9 -66c9.8916 6.30371 21.6338 9.95703 34.2227 9.95703c35.2178 0 63.8105 -28.5928 63.8105 -63.8105c0 -0.0498047 0.0664062 -0.0566406 0.0664062 -0.106445c-0.169922 -1.89258 -0.439453 -3.76855 -0.799805 -5.59961v-0.0400391z
" />
    <glyph glyph-name="wind-primary" unicode="&#xf72e;" 
d="M156.76 192c48.71 0 92.3301 -35 98.4307 -83.4004c0.726562 -4.75879 1.09863 -9.4502 1.09863 -14.4111c0 -52.9844 -43.0156 -96 -96 -96c-47.3271 0 -86.7012 34.3213 -94.5693 79.4111c-1.7998 9.60059 6.11035 18.4004 15.9102 18.4004h32.8301
c6.59961 0 13.0996 -3.7998 15.21 -10.0996c4.28516 -12.6641 16.2656 -21.8145 30.3691 -21.8145c17.6943 0 32.0605 14.3662 32.0605 32.0605c0 1.78906 -0.147461 3.54395 -0.429688 5.25391c-2.59961 15.6992 -17.5098 26.5996 -33.4102 26.5996h-142.26
c-8.83105 0 -16 7.16895 -16 16v32c0 8.83105 7.16895 16 16 16h140.76zM445.83 340.72c1.44824 -6.63184 2.21094 -13.4561 2.21094 -20.5195c0 -53.042 -43.0195 -96.1143 -96.041 -96.2002h-336c-8.83105 0 -16 7.16895 -16 16v32c0 8.83105 7.16895 16 16 16h334.22
c16 0 30.7803 10.9102 33.4004 26.6201c0.383789 1.97852 0.59082 3.99609 0.59082 6.08691c0 17.6611 -14.3389 32 -32 32c-14.3857 0 -26.5674 -9.51367 -30.5908 -22.5869c-2.10059 -6.2998 -8.5 -10.1006 -15.2002 -10.1006h-32.7998
c-9.7002 0 -17.7002 8.7002 -15.7998 18.3008c8.66406 44.2305 47.6094 77.7207 94.3613 77.7207c7.04785 0 13.9199 -0.759766 20.5381 -2.20117c36.2002 -7.59961 65.5107 -36.9102 73.1104 -73.1201z" />
    <glyph glyph-name="ballot-primary" unicode="&#xf732;" horiz-adv-x="384" 
d="M112 96c8.83105 0 16 -7.16895 16 -16v-32c0 -8.83105 -7.16895 -16 -16 -16h-32c-8.83105 0 -16 7.16895 -16 16v32c0 8.83105 7.16895 16 16 16h32zM112 224c8.83105 0 16 -7.16895 16 -16v-32c0 -8.83105 -7.16895 -16 -16 -16h-32c-8.83105 0 -16 7.16895 -16 16v32
c0 8.83105 7.16895 16 16 16h32zM112 352c8.83105 0 16 -7.16895 16 -16v-32c0 -8.83105 -7.16895 -16 -16 -16h-32c-8.83105 0 -16 7.16895 -16 16v32c0 8.83105 7.16895 16 16 16h32z" />
    <glyph glyph-name="ballot-check-primary" unicode="&#xf733;" horiz-adv-x="384" 
d="M80 288c-8.83105 0 -16 7.16895 -16 16v32c0 8.83105 7.16895 16 16 16h32c8.83105 0 16 -7.16895 16 -16v-32c0 -8.83105 -7.16895 -16 -16 -16h-32zM174.3 232.9c0.973633 -0.972656 1.57617 -2.31738 1.57617 -3.80078s-0.602539 -2.82715 -1.57617 -3.7998
l-64.2002 -63.5996c-0.97168 -0.973633 -2.31738 -1.57617 -3.80078 -1.57617c-1.48242 0 -2.82617 0.602539 -3.79883 1.57617l-36.9004 37.2998c-0.973633 0.972656 -1.57617 2.31738 -1.57617 3.80078s0.602539 2.82715 1.57617 3.79883l12.7002 12.6006
c0.972656 0.973633 2.31738 1.57617 3.80078 1.57617s2.82715 -0.602539 3.7998 -1.57617l20.5996 -20.7998l47.5996 47.1992c0.972656 0.973633 2.31738 1.57715 3.80078 1.57715s2.82715 -0.603516 3.7998 -1.57715zM112 96c8.83105 0 16 -7.16895 16 -16v-32
c0 -8.83105 -7.16895 -16 -16 -16h-32c-8.83105 0 -16 7.16895 -16 16v32c0 8.83105 7.16895 16 16 16h32z" />
    <glyph glyph-name="booth-curtain-primary" unicode="&#xf734;" 
d="M416 448v-400v-0.0644531c0 -26.4912 -21.5078 -48 -48 -48c-14.7217 0 -27.8916 6.61621 -36.7002 17.0645c-2.76172 3.13086 -6.80371 5.10645 -11.3027 5.10645s-8.53516 -1.97559 -11.2969 -5.10645c-8.82812 -10.415 -22.0039 -17.0303 -36.7129 -17.0303
s-27.8594 6.61523 -36.6875 17.0303c-2.76172 3.13086 -6.80371 5.10645 -11.3027 5.10645s-8.53516 -1.97559 -11.2969 -5.10645c-8.80859 -10.4482 -21.9912 -17.0908 -36.7129 -17.0908c-26.4922 0 -48 21.5078 -48 48
c0 0.0214844 0.0126953 0.0693359 0.0126953 0.0908203v400h288z" />
    <glyph glyph-name="box-ballot-primary" unicode="&#xf735;" horiz-adv-x="576" 
d="M0 128h576v-160c0 -17.6611 -14.3389 -32 -32 -32h-512c-17.6611 0 -32 14.3389 -32 32v160zM574.7 160h-573.5c-0.299805 0.5 -0.5 0.700195 -0.799805 1.2002l55.5996 138.6c4.73633 11.7725 16.2461 20.0781 29.7002 20.1006h26.0996l0.200195 -64h-0.5l-16 -32h384.4
l-16 32l-0.200195 64h26.5996c13.4541 -0.0224609 24.9639 -8.32812 29.7002 -20.1006l55.5 -138.6c-0.232422 -0.424805 -0.499023 -0.824219 -0.799805 -1.2002z" />
    <glyph glyph-name="clipboard-list-check-primary" unicode="&#xf737;" horiz-adv-x="384" 
d="M96 104c0.0205078 0 0.0400391 0.000976562 0.0605469 0.000976562c13.2119 0 23.9395 -10.7266 23.9395 -23.9395v-0.0615234c0 -13.2461 -10.7539 -24 -24 -24s-24 10.7539 -24 24s10.7539 24 24 24zM161.7 245.6l12.5996 -12.6992
c0.973633 -0.972656 1.57617 -2.31738 1.57617 -3.80078s-0.602539 -2.82715 -1.57617 -3.7998l-64.2002 -63.5996c-0.97168 -0.973633 -2.31738 -1.57617 -3.80078 -1.57617c-1.48242 0 -2.82617 0.602539 -3.79883 1.57617l-36.9004 37.2998
c-0.973633 0.972656 -1.57617 2.31738 -1.57617 3.80078s0.602539 2.82715 1.57617 3.79883l12.7002 12.6006c0.972656 0.973633 2.31738 1.57617 3.80078 1.57617s2.82715 -0.602539 3.7998 -1.57617l20.5996 -20.7998l47.5996 47.1992
c0.972656 0.973633 2.31738 1.57715 3.80078 1.57715s2.82715 -0.603516 3.7998 -1.57715zM256 384c35.3223 0 64 -28.6777 64 -64h-256c0 35.3223 28.6777 64 64 64c0 35.3223 28.6777 64 64 64s64 -28.6777 64 -64zM192 360
c0.0205078 0 0.0400391 -0.000976562 0.0605469 -0.000976562c13.2119 0 23.9395 10.7266 23.9395 23.9395v0.0615234c0 13.2461 -10.7539 24 -24 24s-24 -10.7539 -24 -24s10.7539 -24 24 -24z" />
    <glyph glyph-name="cloud-drizzle-primary" unicode="&#xf738;" 
d="M512 224c0 -52.9834 -43.0166 -96 -96 -96h-320c-52.9834 0 -96 43.0166 -96 96c0 42.5 27.7998 78.2002 66.0996 90.7998c-1.34277 6.89258 -2.06348 13.9258 -2.09961 21.2002v0.0615234c0 61.7812 50.1582 111.939 111.94 111.939
c0.0195312 0 0.0390625 -0.000976562 0.0595703 -0.000976562c43.2998 0 80.4004 -24.7998 99 -60.7998c14.7002 17.5 36.4004 28.7998 61 28.7998c44.1533 0 80 -35.8467 80 -80c0.000976562 -0.158203 0.000976562 -0.316406 0.000976562 -0.475586
c0 -5.40918 -0.551758 -10.624 -1.60059 -15.7246c0.5 0 1 0.200195 1.59961 0.200195c52.9834 0 96 -43.0166 96 -96z" />
    <glyph glyph-name="cloud-hail-primary" unicode="&#xf739;" 
d="M512 224c0 -52.9834 -43.0166 -96 -96 -96h-320c-52.9834 0 -96 43.0166 -96 96c0 42.5 27.7998 78.2002 66.0996 90.7998c-1.34277 6.89258 -2.06348 13.9258 -2.09961 21.2002v0.0615234c0 61.7812 50.1582 111.939 111.94 111.939
c0.0195312 0 0.0390625 -0.000976562 0.0595703 -0.000976562c43.2998 0 80.4004 -24.7998 99 -60.7998c14.7002 17.5 36.4004 28.7998 61 28.7998c44.1533 0 80 -35.8467 80 -80c0.000976562 -0.158203 0.000976562 -0.316406 0.000976562 -0.475586
c0 -5.40918 -0.551758 -10.624 -1.60059 -15.7246c0.5 0 1 0.200195 1.59961 0.200195c52.9834 0 96 -43.0166 96 -96z" />
    <glyph glyph-name="cloud-hail-mixed-primary" unicode="&#xf73a;" 
d="M512 224c0 -52.9834 -43.0166 -96 -96 -96h-320c-52.9834 0 -96 43.0166 -96 96c0 42.5 27.7998 78.2002 66.0996 90.7998c-1.34277 6.89258 -2.06348 13.9258 -2.09961 21.2002v0.0615234c0 61.7812 50.1582 111.939 111.94 111.939
c0.0195312 0 0.0390625 -0.000976562 0.0595703 -0.000976562c43.2998 0 80.4004 -24.7998 99 -60.7998c14.7002 17.5 36.4004 28.7998 61 28.7998c44.1533 0 80 -35.8467 80 -80c0.000976562 -0.158203 0.000976562 -0.316406 0.000976562 -0.475586
c0 -5.40918 -0.551758 -10.624 -1.60059 -15.7246c0.5 0 1 0.200195 1.59961 0.200195c52.9834 0 96 -43.0166 96 -96z" />
    <glyph glyph-name="cloud-meatball-primary" unicode="&#xf73b;" 
d="M416 128h-43.4004c-3.55664 8.20117 -8.57812 15.5566 -14.7998 21.7998c-13.0059 13.0498 -30.9707 21.1611 -50.7998 21.2998c-13.1221 12.9277 -31.1299 20.9092 -50.9873 20.9092s-37.8906 -7.98145 -51.0127 -20.9092
c-29.3438 -0.114258 -54.5352 -17.7891 -65.5996 -43.0996h-43.4004c-52.9834 0 -96 43.0166 -96 96c0 42.5 27.7998 78.2002 66.0996 90.7998c-1.34277 6.89258 -2.06348 13.9258 -2.09961 21.2002v0.0615234c0 61.7812 50.1582 111.939 111.94 111.939
c0.0195312 0 0.0390625 -0.000976562 0.0595703 -0.000976562c43.2998 0 80.4004 -24.7998 99 -60.7998c14.7002 17.5 36.4004 28.7998 61 28.7998c44.1533 0 80 -35.8467 80 -80c0.000976562 -0.158203 0.000976562 -0.316406 0.000976562 -0.475586
c0 -5.40918 -0.551758 -10.624 -1.60059 -15.7246c0.5 0 1 0.200195 1.59961 0.200195c52.9834 0 96 -43.0166 96 -96s-43.0166 -96 -96 -96z" />
    <glyph glyph-name="cloud-moon-rain-primary" unicode="&#xf73c;" horiz-adv-x="576" 
d="M416 144c0 -44.1533 -35.8467 -80 -80 -80h-256c-44.0977 0.0654297 -79.8779 35.8877 -79.8779 80c0 38.6816 27.5703 70.9873 64.0781 78.4004c0 0.5 -0.200195 1.09961 -0.200195 1.59961v0.180664c0 52.8848 42.9355 95.8203 95.8203 95.8203
c32.1025 0 60.4883 -15.7373 77.8799 -40.001c10.3457 5.04785 22.0352 7.94727 34.2998 8c39.0996 -0.0859375 71.6533 -28.3486 78.5 -65.5c37.1943 -6.77051 65.5 -39.3643 65.5 -78.5z" />
    <glyph glyph-name="cloud-rain-primary" unicode="&#xf73d;" 
d="M512 224c0 -52.9834 -43.0166 -96 -96 -96h-320c-52.9834 0 -96 43.0166 -96 96c0 42.5 27.7998 78.2002 66.0996 90.7998c-1.34277 6.89258 -2.06348 13.9258 -2.09961 21.2002v0.0615234c0 61.7812 50.1582 111.939 111.94 111.939
c0.0195312 0 0.0390625 -0.000976562 0.0595703 -0.000976562c43.2998 0 80.4004 -24.7998 99 -60.7998c14.7002 17.5 36.4004 28.7998 61 28.7998c44.1533 0 80 -35.8467 80 -80c0.000976562 -0.158203 0.000976562 -0.316406 0.000976562 -0.475586
c0 -5.40918 -0.551758 -10.624 -1.60059 -15.7246c0.5 0 1 0.200195 1.59961 0.200195c52.9834 0 96 -43.0166 96 -96z" />
    <glyph glyph-name="cloud-rainbow-primary" unicode="&#xf73e;" horiz-adv-x="576" 
d="M399.2 122.4c37.5996 -13 64.7998 -48.4004 64.7998 -90.4004c0 -52.9834 -43.0166 -96 -96 -96h-272c-52.9834 0 -96 43.0166 -96 96c0 50.5996 39.2002 91.5996 88.9004 95.2998c-0.200195 2.90039 -0.900391 5.7002 -0.900391 8.7002v0.125
c0 61.7422 50.127 111.87 111.87 111.87c45.4336 0 84.5205 -27.0547 102.03 -65.9951c9.8916 6.30371 21.6338 9.95703 34.2227 9.95703c35.2178 0 63.8105 -28.5928 63.8105 -63.8105c0 -0.0634766 0.0664062 -0.0830078 0.0664062 -0.146484
c-0.169922 -1.89258 -0.439453 -3.76855 -0.799805 -5.59961z" />
    <glyph glyph-name="cloud-showers-primary" unicode="&#xf73f;" 
d="M512 224c0 -52.9834 -43.0166 -96 -96 -96h-320c-52.9834 0 -96 43.0166 -96 96c0 42.5 27.7998 78.2002 66.0996 90.7998c-1.34277 6.89258 -2.06348 13.9258 -2.09961 21.2002v0.0615234c0 61.7812 50.1582 111.939 111.94 111.939
c0.0195312 0 0.0390625 -0.000976562 0.0595703 -0.000976562c43.2998 0 80.4004 -24.7998 99 -60.7998c14.7002 17.5 36.4004 28.7998 61 28.7998c44.1533 0 80 -35.8467 80 -80c0.000976562 -0.158203 0.000976562 -0.316406 0.000976562 -0.475586
c0 -5.40918 -0.551758 -10.624 -1.60059 -15.7246c0.5 0 1 0.200195 1.59961 0.200195c52.9834 0 96 -43.0166 96 -96z" />
    <glyph glyph-name="cloud-showers-heavy-primary" unicode="&#xf740;" 
d="M512 224c0 -52.9834 -43.0166 -96 -96 -96h-320c-52.9834 0 -96 43.0166 -96 96c0 42.5 27.7998 78.2002 66.0996 90.7998c-1.34277 6.89258 -2.06348 13.9258 -2.09961 21.2002c0 61.8145 50.1855 112 112 112c43.2998 0 80.4004 -24.7998 99 -60.7998
c14.7002 17.5 36.4004 28.7998 61 28.7998c44.1533 0 80 -35.8467 80 -80c0.000976562 -0.158203 0.000976562 -0.316406 0.000976562 -0.475586c0 -5.40918 -0.551758 -10.624 -1.60059 -15.7246c0.5 0 1 0.200195 1.59961 0.200195c52.9834 0 96 -43.0166 96 -96z" />
    <glyph glyph-name="cloud-sleet-primary" unicode="&#xf741;" 
d="M416 128h-320c-52.9834 0 -96 43.0166 -96 96c0 42.5 27.7998 78.2002 66.0996 90.7998c-1.34277 6.89258 -2.06348 13.9258 -2.09961 21.2002v0.0615234c0 61.7812 50.1582 111.939 111.94 111.939c0.0195312 0 0.0390625 -0.000976562 0.0595703 -0.000976562
c43.2998 0 80.4004 -24.7998 99 -60.7998c14.7002 17.5 36.4004 28.7998 61 28.7998c44.1533 0 80 -35.8467 80 -80c0.000976562 -0.158203 0.000976562 -0.316406 0.000976562 -0.475586c0 -5.40918 -0.551758 -10.624 -1.60059 -15.7246
c0.5 0 1 0.200195 1.59961 0.200195c52.9834 0 96 -43.0166 96 -96s-43.0166 -96 -96 -96z" />
    <glyph glyph-name="cloud-snow-primary" unicode="&#xf742;" 
d="M0 224c0 42.5 27.7998 78.2002 66.0996 90.7998c-1.34277 6.89258 -2.06348 13.9258 -2.09961 21.2002v0.0615234c0 61.7812 50.1582 111.939 111.94 111.939c0.0195312 0 0.0390625 -0.000976562 0.0595703 -0.000976562c43.2998 0 80.4004 -24.7998 99 -60.7998
c14.7002 17.5 36.4004 28.7998 61 28.7998c44.1533 0 80 -35.8467 80 -80c0.000976562 -0.158203 0.000976562 -0.316406 0.000976562 -0.475586c0 -5.40918 -0.551758 -10.624 -1.60059 -15.7246c0.5 0 1 0.200195 1.59961 0.200195c52.9834 0 96 -43.0166 96 -96
s-43.0166 -96 -96 -96h-320c-52.9834 0 -96 43.0166 -96 96z" />
    <glyph glyph-name="cloud-sun-rain-primary" unicode="&#xf743;" horiz-adv-x="576" 
d="M576 144c0 -44.1533 -35.8467 -80 -80 -80h-256c-44.0977 0.0654297 -79.8779 35.8877 -79.8779 80c0 38.6816 27.5703 70.9873 64.0781 78.4004c0 0.5 -0.200195 1.09961 -0.200195 1.59961v0.180664c0 52.8848 42.9355 95.8203 95.8203 95.8203
c32.1025 0 60.4883 -15.7373 77.8799 -40.001c10.3457 5.04785 22.0352 7.94727 34.2998 8c39.0996 -0.0859375 71.6533 -28.3486 78.5 -65.5c37.1943 -6.77051 65.5 -39.3643 65.5 -78.5z" />
    <glyph glyph-name="clouds-primary" unicode="&#xf744;" horiz-adv-x="640" 
d="M640 32c0 -52.9834 -43.0166 -96 -96 -96h-320c-52.9834 0 -96 43.0166 -96 96c0 42.5 27.7998 78.2002 66.0996 90.7998c-1.34277 6.89258 -2.06348 13.9258 -2.09961 21.2002v0.0615234c0 61.7812 50.1582 111.939 111.94 111.939
c0.0195312 0 0.0390625 -0.000976562 0.0595703 -0.000976562c43.2002 0 80.4004 -24.9004 99 -60.7998c14.7002 17.5 36.4004 28.7998 61 28.7998c44.1533 0 80 -35.8467 80 -80c0.000976562 -0.158203 0.000976562 -0.316406 0.000976562 -0.475586
c0 -5.40918 -0.551758 -10.624 -1.60059 -15.7246c0.5 0 1 0.200195 1.59961 0.200195c52.9834 0 96 -43.0166 96 -96z" />
    <glyph glyph-name="clouds-moon-primary" unicode="&#xf745;" horiz-adv-x="640" 
d="M448 128c52.9834 0 96 -43.0166 96 -96s-43.0166 -96 -96 -96h-320.16c-52.9834 0 -96 43.0166 -96 96c0 42.0996 27.3105 77.5 65.1602 90.4004c5.25977 56.8994 52.5801 101.6 110.96 101.6c43.1797 0 80.3896 -24.9004 99 -60.7998
c14.6201 17.6191 36.6562 28.7373 61.3174 28.7373c38.5879 0 70.8066 -27.4902 78.123 -63.9375h1.59961zM68 144.59c-6.06543 -3.2959 -11.8096 -7.0332 -17.25 -11.21c-29.7266 11.6777 -50.75 40.6221 -50.75 74.4697c0 44.25 35.5996 80.0801 79.5996 80.0801h17.54
c7.25391 36.4424 39.4404 63.9434 78 63.9434s70.7471 -27.501 78 -63.9434h17.54c39.0107 0 71.3506 -28.3193 78.1104 -65.6602c-13.1436 -2.10742 -25.7412 -6.60742 -36.9102 -12.9199c-25.8896 28.6143 -63.293 46.5459 -104.88 46.5508
c-67.4902 0 -124.21 -46.6504 -139 -111.311z" />
    <glyph glyph-name="clouds-sun-primary" unicode="&#xf746;" horiz-adv-x="640" 
d="M512 128c52.9834 0 96 -43.0166 96 -96s-43.0166 -96 -96 -96h-320c-52.9834 0 -96 43.0166 -96 96c0 42.0996 27.2998 77.5 65.0996 90.4004c5.30078 56.8994 52.6006 101.6 110.9 101.6c43.2002 0 80.4004 -24.9004 99 -60.7998
c14.7002 17.5 36.4004 28.7998 61 28.7998c0.00585938 0 0.00976562 -0.0595703 0.015625 -0.0595703c38.6533 0 70.9404 -27.4727 78.3848 -63.9404h1.59961zM560 288c0.0615234 0 0.161133 0.03125 0.222656 0.03125c44.0479 0 79.8096 -35.7617 79.8096 -79.8105
c0 -33.8701 -21.1445 -62.8408 -50.9424 -74.4209c-15.7539 12.1416 -34.6426 20.7275 -55 24.4004c-17.6504 38.8379 -56.7031 65.7998 -102.09 65.8994c-19.8105 -0.0136719 -38.5264 -5.33008 -54.5996 -14.5c-19.6875 21.5605 -45.9883 37.0029 -75.5908 43.3008
c14.3418 21.2178 38.5732 35.0996 66.0879 35.0996h0.102539h17.6396c7.43262 36.4834 39.7256 63.9707 78.3896 63.9707s70.959 -27.4873 78.3906 -63.9707h17.5801z" />
    <glyph glyph-name="democrat-primary" unicode="&#xf747;" horiz-adv-x="640" 
d="M637.29 191.14c1.70117 -2.56055 2.71875 -5.64062 2.71875 -8.94336c0 -5.56934 -2.82031 -10.4854 -7.1084 -13.3965l-26.6006 -17.7002c-2.54199 -1.70117 -5.60449 -2.71973 -8.8916 -2.71973c-5.5459 0 -10.4375 2.82812 -13.3086 7.12012
c-21.7998 32.7002 -23.8994 38.0996 -40.0996 50.2998v-77.7998h-352l-54 108l-38.1104 -34.5996c-5.77832 -5.80176 -13.7744 -9.39258 -22.5996 -9.40039h-31c-12.5186 0.0224609 -23.3457 7.20703 -28.5996 17.7002l-14.3008 28.5996
c-2.15234 4.30273 -3.36816 9.21387 -3.36816 14.3486c0 7.17969 2.36914 13.8105 6.36816 19.1514l74.6006 99.2998c1.7002 2.30078 4.2002 3.7002 6.39941 5.40039c-4 2.2002 -8 4.2002 -11.2998 7.5c-8.67871 8.69922 -14.0117 20.7588 -14.0117 34.0059
c0 9.76172 2.91504 18.8477 7.92188 26.4346c1.4502 2.14941 3.90527 3.55762 6.69141 3.55762c2.22363 0 4.23828 -0.901367 5.69824 -2.3584l42.9102 -42.8398l41.7998 41.7998c1.78711 1.79102 4.25293 2.9082 6.98047 2.9082c3.42773 0 6.4502 -1.75195 8.21973 -4.4082
c6.11914 -9.26758 9.72559 -20.4375 9.72559 -32.3643c0 -16.2148 -6.58594 -30.9033 -17.2256 -41.5352l81.2002 -81.2002h235.59c0.0742188 0 0.0537109 0.15332 0.126953 0.15332c52.5527 0 98.8779 -26.8721 125.974 -67.6133zM296.19 204.74
c0.932617 0.908203 1.50586 2.17773 1.50586 3.58105c0 2.45117 -1.76758 4.49316 -4.09668 4.91895l-22.7998 3.2998l-10.2002 20.7002c-0.80957 1.6709 -2.5166 2.8252 -4.49707 2.8252s-3.69336 -1.1543 -4.50293 -2.8252l-10.1992 -20.7002l-22.8008 -3.2998
c-2.41699 -0.351562 -4.28125 -2.43555 -4.28125 -4.94922c0 -1.3877 0.566406 -2.64453 1.48145 -3.55078l16.5 -16.1006l-3.89941 -22.6992c-0.0478516 -0.277344 -0.0673828 -0.553711 -0.0673828 -0.84375c0 -2.75977 2.24023 -5 5 -5
c0.81543 0 1.58594 0.196289 2.2666 0.542969l20.4004 10.7002l20.3896 -10.7002c0.680664 -0.34668 1.45703 -0.549805 2.27246 -0.549805c2.75977 0 5 2.24023 5 5c0 0.289062 -0.0244141 0.573242 -0.0722656 0.850586l-3.89941 22.6992zM408.19 204.74
c0.932617 0.908203 1.50586 2.17773 1.50586 3.58105c0 2.45117 -1.76758 4.49316 -4.09668 4.91895l-22.7998 3.2998l-10.2002 20.7002c-0.80957 1.6709 -2.5166 2.8252 -4.49707 2.8252s-3.69336 -1.1543 -4.50293 -2.8252l-10.1992 -20.7002l-22.8008 -3.2998
c-2.41699 -0.351562 -4.28125 -2.43555 -4.28125 -4.94922c0 -1.3877 0.566406 -2.64453 1.48145 -3.55078l16.5 -16.1006l-3.89941 -22.6992c-0.0478516 -0.277344 -0.0673828 -0.553711 -0.0673828 -0.84375c0 -2.75977 2.24023 -5 5 -5
c0.81543 0 1.58594 0.196289 2.2666 0.542969l20.4004 10.7002l20.3896 -10.7002c0.680664 -0.34668 1.45703 -0.549805 2.27246 -0.549805c2.75977 0 5 2.24023 5 5c0 0.289062 -0.0244141 0.573242 -0.0722656 0.850586l-3.89941 22.6992zM520.19 204.74
c0.932617 0.908203 1.50586 2.17773 1.50586 3.58105c0 2.45117 -1.76758 4.49316 -4.09668 4.91895l-22.7998 3.2998l-10.2002 20.7002c-0.80957 1.6709 -2.5166 2.8252 -4.49707 2.8252s-3.69336 -1.1543 -4.50293 -2.8252l-10.1992 -20.7002l-22.8008 -3.2998
c-2.41699 -0.351562 -4.28125 -2.43555 -4.28125 -4.94922c0 -1.3877 0.566406 -2.64453 1.48145 -3.55078l16.5 -16.1006l-3.89941 -22.6992c-0.0478516 -0.277344 -0.0673828 -0.553711 -0.0673828 -0.84375c0 -2.75977 2.24023 -5 5 -5
c0.81543 0 1.58594 0.196289 2.2666 0.542969l20.4004 10.7002l20.3896 -10.7002c0.680664 -0.34668 1.45703 -0.549805 2.27246 -0.549805c2.75977 0 5 2.24023 5 5c0 0.289062 -0.0244141 0.573242 -0.0722656 0.850586l-3.89941 22.6992z" />
    <glyph glyph-name="dewpoint-primary" unicode="&#xf748;" 
d="M384 114.1c0 -98.3994 -85.9004 -178.1 -192 -178.1s-192 79.7002 -192 178.1c0 111.21 109.1 154.11 160.1 311.811c9.80078 30.0996 55.1006 28.7998 63.8008 0c51.1992 -158.5 160.1 -200 160.1 -311.811z" />
    <glyph glyph-name="eclipse-primary" unicode="&#xf749;" horiz-adv-x="640" 
d="M640 192c0 -97.1367 -78.8633 -176 -176 -176s-176 78.8633 -176 176s78.8633 176 176 176s176 -78.8633 176 -176z" />
    <glyph glyph-name="eclipse-alt-primary" unicode="&#xf74a;" 
d="M330.4 131.5c-17.6074 -21.6924 -44.4814 -35.5645 -74.5703 -35.5645c-52.9844 0 -96 43.0156 -96 96c0 52.9834 43.0156 96 96 96c0.0126953 0 0.0576172 0.0644531 0.0703125 0.0644531h0.289062c5.9082 0 11.6055 -0.548828 17.2109 -1.59961
c2.07324 -0.396484 3.64355 -2.22168 3.64355 -4.41016c0 -1.66406 -0.898438 -3.11426 -2.24414 -3.89062c-22.7354 -12.9424 -38.0801 -37.3975 -38.0801 -65.4072c0 -0.0136719 0.0800781 0.0214844 0.0800781 0.0078125c0 -47.1006 42.7998 -82.7998 89.2998 -73.9004
c0.274414 0.0527344 0.556641 0.0800781 0.845703 0.0800781c2.4834 0 4.5 -2.0166 4.5 -4.5c0 -1.09375 -0.395508 -2.09961 -1.04492 -2.87988z" />
    <glyph glyph-name="fire-smoke-primary" unicode="&#xf74b;" horiz-adv-x="640" 
d="M640 48v-0.0615234c0 -61.7812 -50.1582 -111.939 -111.94 -111.939c-0.0195312 0 -0.0390625 0.000976562 -0.0595703 0.000976562h-416c-61.8145 0 -112 50.1855 -112 112s50.1855 112 112 112c37.0996 0 69.7002 -18.2998 90.0996 -46.0996
c19.4297 45.9648 64.9531 78.2529 117.959 78.2529s98.4121 -32.2881 117.842 -78.2529c20.3994 27.7998 53 46.0996 90.0996 46.0996h0.0615234c61.7812 0 111.939 -50.1582 111.939 -111.94c0 -0.0195312 -0.000976562 -0.0390625 -0.000976562 -0.0595703z" />
    <glyph glyph-name="flag-alt-primary" unicode="&#xf74c;" 
d="M64 416v-464c0 -8.83105 -7.16895 -16 -16 -16h-32c-8.83105 0 -16 7.16895 -16 16v464c0 17.6611 14.3389 32 32 32s32 -14.3389 32 -32z" />
    <glyph glyph-name="flag-usa-primary" unicode="&#xf74d;" 
d="M32 448c17.6611 0 32 -14.3389 32 -32v-464c0 -8.83105 -7.16895 -16 -16 -16h-32c-8.83105 0 -16 7.16895 -16 16v464c0 17.6611 14.3389 32 32 32zM96 415.6c100.3 45.3096 149.32 33.6309 192 18.8203v-158c-51.71 12.6797 -108.17 20.4199 -192 -12.75v151.93z
M160 319.9c8.83105 0 16 7.14844 16 15.9795v0.0205078c0 8.83008 -7.16895 16 -16 16s-16 -7.16992 -16 -16c0 -8.83105 7.16895 -16 16 -16zM160 375.69c8.83105 0 16 7.14844 16 15.9795v0.0205078c0 8.83008 -7.16895 16 -16 16s-16 -7.16992 -16 -16
c0 -8.83105 7.16895 -16 16 -16zM224 327.79c8.83105 0 16 7.14941 16 15.9795v0.0205078c0 8.83105 -7.16895 16 -16 16s-16 -7.16895 -16 -16s7.16895 -16 16 -16zM224 383.69c8.83105 0 16 7.14844 16 15.9795v0.0205078c0 8.83008 -7.16895 16 -16 16
s-16 -7.16992 -16 -16c0 -8.83105 7.16895 -16 16 -16z" />
    <glyph glyph-name="fog-primary" unicode="&#xf74e;" horiz-adv-x="640" 
d="M64 224c0 42.5 27.7998 78.2002 66.0996 90.7998c-1.34277 6.89258 -2.06348 13.9258 -2.09961 21.2002v0.0615234c0 61.7812 50.1582 111.939 111.94 111.939c0.0195312 0 0.0390625 -0.000976562 0.0595703 -0.000976562c43.2998 0 80.4004 -24.7998 99 -60.7998
c14.7002 17.5 36.4004 28.7998 61 28.7998c44.1533 0 80 -35.8467 80 -80c0.000976562 -0.158203 0.000976562 -0.316406 0.000976562 -0.475586c0 -5.40918 -0.551758 -10.624 -1.60059 -15.7246c0.5 0 1 0.200195 1.59961 0.200195c52.9834 0 96 -43.0166 96 -96
s-43.0166 -96 -96 -96h-320c-52.9834 0 -96 43.0166 -96 96z" />
    <glyph glyph-name="house-flood-primary" unicode="&#xf74f;" horiz-adv-x="576" 
d="M562.2 0.120117c8.04004 -0.900391 13.7998 -8.31055 13.7402 -16.3203v-31.6299c0 -9.11035 -7.60059 -16.8096 -16.7002 -16c-28.6133 2.53906 -55.7402 11.7324 -79.1201 25.8301c-55 -34.1299 -135.521 -34.6299 -192 0c-55 -34.1299 -135.521 -34.6299 -192 0
c-23.3105 -14.5098 -50.6104 -23.4199 -79.4199 -25.9199c-9.10059 -0.799805 -16.7002 6.90039 -16.7002 16v32.2197c0 7.91016 5.7002 14.9199 13.5996 15.7197c21.71 2.30078 42.21 10.2109 57.71 22.4209c13.8008 10.9092 33.6104 13.21 47.1104 2
c38.3105 -31.7002 107.23 -31.8301 145.23 -1.7002c13.6992 10.9102 33.1992 13 46.6992 1.7998c38.5107 -31.9297 107.82 -31.9297 145.73 -1.5c6.61426 5.25293 15.0381 8.39258 24.1328 8.39258s17.4629 -3.13965 24.0771 -8.39258
c15.7998 -12.4102 36.4004 -20.5205 57.9102 -22.9199zM22 203.95l-0.0595703 0.0498047c-2.47949 2.81836 -3.99414 6.52051 -3.99414 10.5654c0 4.76855 2.08984 9.05176 5.40332 11.9844l238.271 211.4c7.01172 6.24707 16.2871 10.0449 26.4072 10.0449
c10.1211 0 19.3613 -3.79785 26.373 -10.0449l101.239 -90v52c0 8.83008 7.16992 16 16 16h31.9307c8.83008 0 16 -7.16992 16 -16v-108.65l73 -64.7998v0.0498047c3.29297 -2.9502 5.35645 -7.24121 5.35645 -12.0059c0 -4.05469 -1.50098 -7.76074 -3.97656 -10.5938
l-21.1504 -24c-2.93164 -3.31055 -7.21875 -5.38867 -11.9844 -5.38867c-4.04785 0 -7.74609 1.50684 -10.5654 3.98828l-222.31 197.3l-222.24 -197.3l-0.0498047 -0.0498047c-2.8125 -2.4541 -6.49512 -3.95215 -10.5176 -3.95215
c-4.76758 0 -9.05078 2.08984 -11.9824 5.40234z" />
    <glyph glyph-name="humidity-primary" unicode="&#xf750;" horiz-adv-x="384" 
d="M128 192c17.6611 0 32 -14.3389 32 -32s-14.3389 -32 -32 -32s-32 14.3389 -32 32s14.3389 32 32 32zM256 96c17.6611 0 32 -14.3389 32 -32s-14.3389 -32 -32 -32s-32 14.3389 -32 32s14.3389 32 32 32z" />
    <glyph glyph-name="landmark-alt-primary" unicode="&#xf752;" 
d="M288 432v-18.9004c80.0771 -13.5781 143.521 -77.0225 157.1 -157.1h18.9004c8.83105 0 16 -7.16895 16 -16v-32c0 -8.83105 -7.16895 -16 -16 -16h-416c-8.83105 0 -16 7.16895 -16 16v32c0 8.83105 7.16895 16 16 16h18.9004
c13.5781 80.0771 77.0225 143.521 157.1 157.1v18.9004c0 8.83105 7.16895 16 16 16h32c8.83105 0 16 -7.16895 16 -16z" />
    <glyph glyph-name="moon-cloud-primary" unicode="&#xf754;" horiz-adv-x="576" 
d="M320 128c-0.0332031 -35.3076 -28.6924 -63.9668 -64 -64h-192c-35.3223 0 -64 28.6777 -64 64s28.6777 64 64 64c0.599609 0 1.09961 -0.200195 1.59961 -0.200195c7.2666 36.5518 39.5469 64.1387 78.2207 64.1387c41.7842 0 76.1074 -32.2178 79.4795 -73.1387
c9.6084 5.8125 20.873 9.15918 32.9131 9.15918c35.168 0 63.7197 -28.5518 63.7197 -63.7207c0 -0.0947266 0.0673828 -0.143555 0.0673828 -0.238281z" />
    <glyph glyph-name="moon-stars-primary" unicode="&#xf755;" 
d="M332.2 21.5996c8.09961 1.60059 13.8994 -8 8.59961 -14.5c-35.0576 -43.4316 -88.7236 -71.2314 -148.832 -71.2314c-0.0800781 0 -0.0878906 0.131836 -0.167969 0.131836c-106 0 -191.8 86 -191.8 192c0 120 108.7 210.6 227 188.8
c8.2002 -1.59961 10.0996 -12.5996 2.7998 -16.7002c-45.5225 -25.8418 -76.2607 -74.7607 -76.2607 -130.803c0 -0.03125 0.161133 0.0341797 0.161133 0.00292969c0 -94 85.3994 -165.399 178.5 -147.7z" />
    <glyph glyph-name="person-booth-primary" unicode="&#xf756;" horiz-adv-x="576" 
d="M288 448h192v-416c0 -17.6611 -14.3389 -32 -32 -32s-32 14.3389 -32 32c0 -17.5898 -14.2812 -31.8506 -31.8701 -31.8506c-17.0469 0 -30.9854 13.4121 -31.8301 30.251c-4.2998 -21.3008 -17.0996 -30.4004 -32.2998 -30.4004
c-18.4004 0 -35.7002 16.7002 -31.4004 38.2998l30.9004 154.601l-31.5 223.1v32zM224 224c17.6611 0 32 -14.3389 32 -32s-14.3389 -32 -32 -32h-57.5c-0.03125 0 -0.0664062 -0.0078125 -0.0976562 -0.0078125c-13.2139 0 -25.1768 5.39844 -33.8027 14.1074
l-20.8994 20.9004v-80.5996l41.2002 -61.3008c4.26465 -8.59277 6.69922 -18.334 6.69922 -28.5703v-0.0292969v-56.5c0 -17.6611 -14.3379 -32 -32 -32c-17.6611 0 -32 14.3389 -32 32v56l-29.0996 43c-0.900391 0.400391 -1.59961 1.2002 -2.5 1.7002l-0.0996094 -100.7
c0.0332031 -0.600586 0.0488281 -1.20508 0.0488281 -1.81348c0 -17.6611 -14.3389 -32 -32 -32s-32 14.3389 -32 32c0 0.608398 0.0175781 1.21289 0.0507812 1.81348l0.200195 160l-0.200195 95.9004v0.0996094c0 35.3223 28.6777 64 64 64h18.7002
c0.0595703 0 0.125 0.00976562 0.18457 0.00976562c17.582 0 33.5049 -7.15527 45.0156 -18.71l45.1992 -45.2998h50.9004z" />
    <glyph glyph-name="person-sign-primary" unicode="&#xf757;" 
d="M321 236l13 36l45.29 -16.4297l-46.1904 -126.87c-2.22656 -6.1582 -8.12891 -10.5527 -15.0518 -10.5527c-1.91211 0 -3.74707 0.335938 -5.44824 0.952148l-15 5.5c-6.15723 2.22754 -10.5527 8.12988 -10.5527 15.0527c0 1.91211 0.336914 3.74707 0.953125 5.44727
l11.2002 30.8008l-46.1006 15.3994c-9.51172 3.22363 -18.0352 8.56543 -25 15.5l-20 20v-91.2002l41.2002 -82.5c4.26465 -8.59277 6.7002 -18.334 6.7002 -28.5703v-0.0292969v-56.5c0 -17.6611 -14.3389 -32 -32 -32s-32 14.3389 -32 32v56.5l-35.8203 71.5h-15.2998
l-13.2002 -131.2c-1.64258 -16.1211 -15.2578 -28.7559 -31.7998 -28.7998c-1 0 -2.09961 0.0996094 -3.2002 0.200195c-16.125 1.64258 -28.7578 15.2471 -28.7578 31.8027c0 1.0791 0.0537109 2.14551 0.158203 3.19727l15.9199 158.399v54.8008l-19.4199 -38.7002
c-5.02246 -11.1055 -16.165 -18.7803 -29.1367 -18.7803c-17.6611 0 -32 14.3389 -32 32c0 5.57324 1.42773 10.8154 3.93652 15.3799l55.2197 110.4c10.3984 21.0039 32.0156 35.4004 57.0225 35.4004c0.0585938 0 0.118164 0 0.177734 -0.000976562h62.9004
c0.0371094 0 0.0800781 0.0107422 0.118164 0.0107422c17.6221 0 33.5762 -7.19727 45.082 -18.8105l49.2998 -49.2998zM429.68 441.5c6.1582 -2.22754 10.5537 -8.12988 10.5537 -15.0518c0 -1.91309 -0.336914 -3.74707 -0.953125 -5.44824l-5.49023 -15l-45.0996 16.4004
l5.48926 15c2.22754 6.15723 8.12988 10.5527 15.0527 10.5527c1.91211 0 3.74707 -0.336914 5.44727 -0.953125z" />
    <glyph glyph-name="podium-star-primary" unicode="&#xf758;" horiz-adv-x="448" 
d="M400 -16c8.83105 0 16 -7.16895 16 -16v-16c0 -8.83105 -7.16895 -16 -16 -16h-352c-8.83105 0 -16 7.16895 -16 16v16c0 8.83105 7.16895 16 16 16h352zM307.37 127c-0.31543 -2.21094 -1.35449 -4.20117 -2.87012 -5.7002l-33 -32.2002l7.7998 -45.5
c0.0888672 -0.536133 0.125 -1.07129 0.125 -1.63281c0 -5.51855 -4.48047 -10 -10 -10c-1.66797 0 -3.24121 0.40918 -4.625 1.13281l-40.7998 21.5l-40.7998 -21.5c-1.38379 -0.723633 -2.96777 -1.14844 -4.63574 -1.14844c-5.51953 0 -10 4.48145 -10 10
c0 0.561523 0.046875 1.1123 0.135742 1.64844l7.7998 45.5l-33 32.2002c-1.88965 1.82031 -3.05371 4.37598 -3.05371 7.2041c0 5.02832 3.71875 9.19434 8.55371 9.89648l45.5996 6.72949l20.4004 41.4004c1.63867 3.28809 5.02344 5.54883 8.94434 5.54883
c3.91992 0 7.31738 -2.26074 8.95605 -5.54883l20.3994 -41.4004l45.6006 -6.7002c4.8457 -0.71582 8.58105 -4.8877 8.58105 -9.93164c0 -0.508789 -0.0380859 -1.00977 -0.111328 -1.49805zM432 304c8.83105 0 16 -7.16895 16 -16v-16c0 -8.83105 -7.16895 -16 -16 -16
h-416c-8.83105 0 -16 7.16895 -16 16v16c0 8.83105 7.16895 16 16 16h49c6.66016 52.8496 45.8096 95.5195 96.6904 108c5.29297 20.6523 24.0254 35.9629 46.3096 36h64c26.4922 0 48 -21.5078 48 -48s-21.5078 -48 -48 -48h-64l-0.0185547 -0.00390625
c-12.9492 0 -24.7002 5.16895 -33.3018 13.5537c-31.1494 -7.25 -54.7998 -31.2598 -61 -61.5498h318.32z" />
    <glyph glyph-name="poo-storm-primary" unicode="&#xf75a;" horiz-adv-x="448" 
d="M374.4 223.3c41 -3.2998 73.5996 -37.5 73.5 -79.2998c-0.131836 -44.0918 -35.9082 -79.8682 -80 -80h-30l8.09961 14c3.73145 6.46289 5.86719 13.96 5.86719 21.9531c0 24.2822 -19.6855 44.0439 -43.9668 44.0469h-16l6.59961 24.7002
c0.959961 3.61035 1.4707 7.40332 1.4707 11.3145c0 24.2754 -19.6982 43.9717 -43.9707 43.9854h-68c-22.291 -0.0722656 -40.7285 -16.7041 -43.7002 -38.2002l-16 -120c0.0253906 -0.299805 0.0380859 -0.603516 0.0380859 -0.910156
s-0.0126953 -0.589844 -0.0380859 -0.889648h-48.2998c-44.0918 0.131836 -79.8682 35.9082 -80 80c0 41.7998 32.5996 76 73.5996 79.2998c-5.98047 9.45703 -9.51367 20.7129 -9.59961 32.7002c0.0332031 35.3076 28.6924 63.9668 64 64h16h0.21582
c44.0371 0 79.79 35.752 79.79 79.79c0 17.4053 -5.63184 33.5889 -15.1055 46.71c4.92676 0.899414 9.93652 1.41016 15.0996 1.5c52.9834 0 96 -43.0166 96 -96c-0.106445 -11.2207 -2.20312 -22.0332 -5.90039 -32h5.90039c35.3076 -0.0332031 63.9668 -28.6924 64 -64
c-0.0859375 -11.9873 -3.61914 -23.2432 -9.59961 -32.7002z" />
    <glyph glyph-name="raindrops-primary" unicode="&#xf75c;" horiz-adv-x="448" 
d="M341.2 304.8c34.2002 -108.899 106.8 -137.5 106.8 -214.399c0 -67.6006 -57.2002 -122.4 -128 -122.4s-128 54.7002 -128 122.4c0 76.5 72.7002 106 106.7 214.399c6.5 20.7002 36.7002 19.7998 42.5 0z" />
    <glyph glyph-name="republican-primary" unicode="&#xf75e;" horiz-adv-x="640" 
d="M384 416c88.3066 0 160 -71.6934 160 -160v-64h-544v64c0 88.3066 71.6934 160 160 160h224zM176.3 277.6c1.09473 1.08789 1.7666 2.59473 1.7666 4.25781c0 3.02832 -2.24902 5.53613 -5.16602 5.94238l-27.4004 4l-12.2002 24.7998
c-0.990234 1.95215 -3.00977 3.29004 -5.34668 3.29004c-2.33594 0 -4.3623 -1.33789 -5.35352 -3.29004l-12.1992 -24.7998l-27.4004 -4c-2.875 -0.443359 -5.08594 -2.93164 -5.08594 -5.93066c0 -1.66992 0.683594 -3.18066 1.78613 -4.26953l19.7998 -19.2998
l-4.7002 -27.2998c-0.0537109 -0.322266 -0.0751953 -0.642578 -0.0751953 -0.979492c0 -3.31152 2.68848 -6 6 -6c1.00098 0 1.94531 0.245117 2.77539 0.679688l24.5 12.8994l24.5 -12.8994c0.830078 -0.43457 1.78027 -0.689453 2.78125 -0.689453
c3.31152 0 6 2.68848 6 6c0 0.336914 -0.0273438 0.666992 -0.0810547 0.989258l-4.7002 27.2998zM320.3 277.6c1.09473 1.08789 1.7666 2.59473 1.7666 4.25781c0 3.02832 -2.24902 5.53613 -5.16602 5.94238l-27.4004 4l-12.2002 24.7998
c-0.990234 1.95215 -3.00977 3.29004 -5.34668 3.29004c-2.33594 0 -4.3623 -1.33789 -5.35352 -3.29004l-12.1992 -24.7998l-27.4004 -4c-2.875 -0.443359 -5.08594 -2.93164 -5.08594 -5.93066c0 -1.66992 0.683594 -3.18066 1.78613 -4.26953l19.7998 -19.2998
l-4.7002 -27.2998c-0.0537109 -0.322266 -0.0751953 -0.642578 -0.0751953 -0.979492c0 -3.31152 2.68848 -6 6 -6c1.00098 0 1.94531 0.245117 2.77539 0.679688l24.5 12.8994l24.5 -12.8994c0.830078 -0.43457 1.78027 -0.689453 2.78125 -0.689453
c3.31152 0 6 2.68848 6 6c0 0.336914 -0.0273438 0.666992 -0.0810547 0.989258l-4.7002 27.2998zM464.3 277.6c1.09473 1.08789 1.7666 2.59473 1.7666 4.25781c0 3.02832 -2.24902 5.53613 -5.16602 5.94238l-27.4004 4l-12.2002 24.7998
c-0.990234 1.95215 -3.00977 3.29004 -5.34668 3.29004c-2.33594 0 -4.3623 -1.33789 -5.35352 -3.29004l-12.1992 -24.7998l-27.4004 -4c-2.875 -0.443359 -5.08594 -2.93164 -5.08594 -5.93066c0 -1.66992 0.683594 -3.18066 1.78613 -4.26953l19.7998 -19.2998
l-4.7002 -27.2998c-0.0537109 -0.322266 -0.0751953 -0.642578 -0.0751953 -0.979492c0 -3.31152 2.68848 -6 6 -6c1.00098 0 1.94531 0.245117 2.77539 0.679688l24.5 12.8994l24.5 -12.8994c0.830078 -0.43457 1.78027 -0.689453 2.78125 -0.689453
c3.31152 0 6 2.68848 6 6c0 0.336914 -0.0273438 0.666992 -0.0810547 0.989258l-4.7002 27.2998z" />
    <glyph glyph-name="smog-primary" unicode="&#xf75f;" horiz-adv-x="640" 
d="M0 304v0.28125c0 79.3262 64.4033 143.729 143.729 143.729c41.0322 0 78.0713 -17.1963 104.271 -44.8105c26.1016 27.5996 63.0537 44.792 104 44.7998c54.7998 0 102 -31 126.3 -76.0996c14.8955 7.60938 31.8613 12.0049 49.7002 12.0996
c61.8145 0 112 -50.1855 112 -112s-50.1855 -112 -112 -112h-60.0996c-22.6006 -19.7002 -51.6006 -32 -83.9004 -32s-61.4004 12.2998 -83.9004 32h-156.1c-79.4756 0 -144 64.5244 -144 144z" />
    <glyph glyph-name="smoke-primary" unicode="&#xf760;" horiz-adv-x="640" 
d="M640 48v-0.0615234c0 -61.7812 -50.1582 -111.939 -111.94 -111.939c-0.0195312 0 -0.0390625 0.000976562 -0.0595703 0.000976562h-384c-0.128906 0 -0.258789 -0.000976562 -0.387695 -0.000976562c-79.4756 0 -144 64.5244 -144 144c0 79.4766 64.5244 144 144 144
c41.0635 0 78.1445 -17.1855 104.388 -44.7988c26.1016 27.5996 63.0537 44.792 104 44.7998c54.7998 0 102 -31 126.3 -76.0996c14.8955 7.60938 31.8613 12.0049 49.7002 12.0996h0.0615234c61.7812 0 111.939 -50.1582 111.939 -111.94
c0 -0.0195312 -0.000976562 -0.0390625 -0.000976562 -0.0595703z" />
    <glyph glyph-name="snow-blowing-primary" unicode="&#xf761;" horiz-adv-x="640" 
d="M291.93 123.9l-11.71 -3.10059c-1.00684 -0.270508 -2.06543 -0.414062 -3.15723 -0.414062c-5.62207 0 -10.3545 3.82715 -11.7422 9.01465l-14.9004 55.5996l-50.4199 29.0996v-56.8994l40.4004 -40.2002c2.18066 -2.17285 3.53125 -5.17969 3.53125 -8.49805
c0 -3.31934 -1.35059 -6.3291 -3.53125 -8.50195l-8.5 -8.5c-2.17383 -2.18066 -5.17969 -3.53125 -8.49902 -3.53125c-3.31836 0 -6.32812 1.35059 -8.50098 3.53125l-14.8008 14.7998v-30.2998c0 -6.62305 -5.37695 -12 -12 -12h-24c-6.62305 0 -12 5.37695 -12 12
v30.2998l-14.7998 -14.7998c-2.17285 -2.18066 -5.17969 -3.53125 -8.49805 -3.53125c-3.31934 0 -6.32812 1.35059 -8.50195 3.53125l-8.5 8.5c-2.18066 2.17285 -3.53125 5.17969 -3.53125 8.49805c0 3.31934 1.35059 6.3291 3.53125 8.50195l40.2002 40.2002v56.8994
l-50.4199 -29.0996l-14.9004 -55.5996c-1.41016 -5.18457 -6.1543 -9.00195 -11.7832 -9.00195c-1.0791 0 -2.12012 0.138672 -3.11621 0.401367l-11.71 3.10059c-5.18457 1.41016 -9.00195 6.1543 -9.00195 11.7832c0 1.0791 0.138672 2.12012 0.401367 3.11621
l5.53027 20.4004l-26.5996 -15.2998c-1.79297 -1.0459 -3.87695 -1.64551 -6.09961 -1.64551c-4.48633 0 -8.41211 2.41992 -10.5107 6.04492l-12.0996 21c-1.0459 1.79102 -1.64453 3.87402 -1.64453 6.0957c0 4.48438 2.41992 8.4082 6.04395 10.5049l26.5098 15.3994
l-20.4092 5.5c-5.18457 1.41016 -9.00195 6.15527 -9.00195 11.7832c0 1.0791 0.138672 2.12012 0.401367 3.11719l3.10059 11.7002c1.41016 5.18457 6.1543 9.00098 11.7832 9.00098c1.0791 0 2.11914 -0.137695 3.11621 -0.401367l55.7197 -15l50.21 29l-50.2393 29
l-55.6201 -14.9004c-1.00684 -0.269531 -2.06543 -0.414062 -3.15723 -0.414062c-5.62305 0 -10.3545 3.82715 -11.7432 9.01465l-3.09961 11.7002c-0.270508 1.00684 -0.415039 2.06543 -0.415039 3.15723c0 5.62207 3.82715 10.3535 9.01465 11.7422l20.4102 5.5
l-26.6104 15.2998c-3.62402 2.09668 -6.06445 6.01562 -6.06445 10.5c0 2.22168 0.620117 4.30957 1.66504 6.10059l12.0996 21c2.09863 3.625 6.01953 6.06543 10.5059 6.06543c2.22266 0 4.3125 -0.620117 6.10449 -1.66602l26.5 -15.2998l-5.5 20.4004
c-0.269531 1.00488 -0.413086 2.06055 -0.413086 3.14941c0 5.63281 3.8418 10.3711 9.04297 11.75l11.71 3.2002c1.00684 0.270508 2.06543 0.415039 3.15723 0.415039c5.62305 0 10.3545 -3.82715 11.7432 -9.01465l15 -55.7002l50.3896 -29.0996v56.8994
l-40.3096 40.2002c-2.18164 2.17285 -3.53125 5.17969 -3.53125 8.49805c0 3.31934 1.34961 6.3291 3.53125 8.50195l8.5 8.5c2.17285 2.18066 5.17871 3.53125 8.49805 3.53125s6.32812 -1.35059 8.50195 -3.53125l14.8096 -14.7998v30.2998c0 6.62305 5.37695 12 12 12h24
c6.62305 0 12 -5.37695 12 -12v-30.2998l14.7002 14.7998c2.17285 2.18066 5.17969 3.53125 8.49805 3.53125c3.31934 0 6.32812 -1.35059 8.50195 -3.53125l8.5 -8.5c2.18066 -2.17285 3.53125 -5.17969 3.53125 -8.49805c0 -3.31934 -1.35059 -6.3291 -3.53125 -8.50195
l-40.2002 -40.2002v-56.8994l50.4199 29.0996l14.9004 55.5996c1.41016 5.18457 6.1543 9.00195 11.7832 9.00195c1.0791 0 2.12012 -0.138672 3.11621 -0.401367l11.71 -3.10059c5.18457 -1.41016 9.00195 -6.1543 9.00195 -11.7832
c0 -1.0791 -0.138672 -2.12012 -0.401367 -3.11621l-5.53027 -20.4004l26.5996 15.2998c1.79297 1.0459 3.87695 1.64551 6.09961 1.64551c4.48633 0 8.41211 -2.41992 10.5107 -6.04492l12.0996 -21c1.0459 -1.79102 1.64453 -3.87402 1.64453 -6.0957
c0 -4.48438 -2.41992 -8.4082 -6.04395 -10.5049l-26.6104 -15.2998l20.4102 -5.5c5.18457 -1.41016 9.00195 -6.1543 9.00195 -11.7832c0 -1.0791 -0.138672 -2.12012 -0.402344 -3.11621l-3.09961 -11.7002c-1.41016 -5.18457 -6.1543 -9.00195 -11.7832 -9.00195
c-1.0791 0 -2.12012 0.138672 -3.11719 0.401367l-55.5898 14.9004l-50.21 -29l50.21 -29l55.6201 14.9004c1.00684 0.269531 2.06543 0.414062 3.15723 0.414062c5.62305 0 10.3545 -3.82715 11.7432 -9.01465l3.09961 -11.7002
c0.270508 -1.00684 0.415039 -2.06543 0.415039 -3.15723c0 -5.62207 -3.82715 -10.3535 -9.01465 -11.7422l-20.4102 -5.5l26.6104 -15.2998c3.62402 -2.09668 6.06445 -6.01562 6.06445 -10.5c0 -2.22168 -0.620117 -4.30957 -1.66504 -6.10059l-12.0996 -21
c-2.09863 -3.625 -6.01953 -6.06543 -10.5059 -6.06543c-2.22266 0 -4.3125 0.620117 -6.10449 1.66602l-26.6299 15.2998l5.5 -20.4004c0.282227 -1.02344 0.432617 -2.10059 0.432617 -3.21289c0 -5.60547 -3.8252 -10.3203 -9.00293 -11.6865z" />
    <glyph glyph-name="sun-cloud-primary" unicode="&#xf763;" horiz-adv-x="640" 
d="M640 160c-0.0332031 -35.3076 -28.6924 -63.9668 -64 -64h-192c-35.3223 0 -64 28.6777 -64 64s28.6777 64 64 64c0.599609 0 1.09961 -0.200195 1.59961 -0.200195c7.2666 36.5518 39.5469 64.1387 78.2207 64.1387c41.7842 0 76.1074 -32.2178 79.4795 -73.1387
c9.6084 5.8125 20.873 9.15918 32.9131 9.15918c35.168 0 63.7197 -28.5518 63.7197 -63.7207c0 -0.0947266 0.0673828 -0.143555 0.0673828 -0.238281z" />
    <glyph glyph-name="sun-dust-primary" unicode="&#xf764;" 
d="M160 0c17.6611 0 32 -14.3389 32 -32s-14.3389 -32 -32 -32s-32 14.3389 -32 32s14.3389 32 32 32zM480 256c-17.6611 0 -32 14.3389 -32 32s14.3389 32 32 32s32 -14.3389 32 -32s-14.3389 -32 -32 -32zM384 160c0 -17.6611 -14.3389 -32 -32 -32s-32 14.3389 -32 32
s14.3389 32 32 32s32 -14.3389 32 -32zM240 96c17.6611 0 32 -14.3389 32 -32s-14.3389 -32 -32 -32s-32 14.3389 -32 32s14.3389 32 32 32zM400 96c17.6611 0 32 -14.3389 32 -32s-14.3389 -32 -32 -32s-32 14.3389 -32 32s14.3389 32 32 32zM480 0
c17.6611 0 32 -14.3389 32 -32s-14.3389 -32 -32 -32s-32 14.3389 -32 32s14.3389 32 32 32zM480 192c17.6611 0 32 -14.3389 32 -32s-14.3389 -32 -32 -32s-32 14.3389 -32 32s14.3389 32 32 32zM320 0c17.6611 0 32 -14.3389 32 -32s-14.3389 -32 -32 -32
s-32 14.3389 -32 32s14.3389 32 32 32z" />
    <glyph glyph-name="sun-haze-primary" unicode="&#xf765;" horiz-adv-x="640" 
d="M80 112c-8.83105 0 -16 7.16895 -16 16v16c0 8.83105 7.16895 16 16 16h336c8.83105 0 16 -7.16895 16 -16v-16c0 -8.83105 -7.16895 -16 -16 -16h-336zM624 160c8.83105 0 16 -7.16895 16 -16v-16c0 -8.83105 -7.16895 -16 -16 -16h-128c-8.83105 0 -16 7.16895 -16 16
v16c0 8.83105 7.16895 16 16 16h128zM208 -16c8.83105 0 16 -7.16895 16 -16v-16c0 -8.83105 -7.16895 -16 -16 -16h-128c-8.83105 0 -16 7.16895 -16 16v16c0 8.83105 7.16895 16 16 16h128zM624 -16c8.83105 0 16 -7.16895 16 -16v-16c0 -8.83105 -7.16895 -16 -16 -16
h-336c-8.83105 0 -16 7.16895 -16 16v16c0 8.83105 7.16895 16 16 16h336zM576 40c0 -8.83105 -7.16895 -16 -16 -16h-544c-8.83105 0 -16 7.16895 -16 16v16c0 8.83105 7.16895 16 16 16h544c8.83105 0 16 -7.16895 16 -16v-16z" />
    <glyph glyph-name="sunrise-primary" unicode="&#xf766;" horiz-adv-x="576" 
d="M560 -16c8.83105 0 16 -7.16895 16 -16v-16c0 -8.83105 -7.16895 -16 -16 -16h-544c-8.83105 0 -16 7.16895 -16 16v16c0 8.83105 7.16895 16 16 16h544zM190.8 320c-14.2002 0 -21.3994 17.3496 -11.2002 27.2998l96.4004 95.7002
c3.0752 3.06445 7.32227 4.96094 12.0029 4.96094s8.92188 -1.89648 11.9971 -4.96094l96.4004 -95.5996c10.1992 -10.1006 3.09961 -27.4004 -11.2002 -27.4004h-65.2002v-80c0 -8.83105 -7.16895 -16 -16 -16h-32c-8.83105 0 -16 7.16895 -16 16v80h-65.2002z" />
    <glyph glyph-name="sunset-primary" unicode="&#xf767;" horiz-adv-x="576" 
d="M560 -16c8.83105 0 16 -7.16895 16 -16v-16c0 -8.83105 -7.16895 -16 -16 -16h-544c-8.83105 0 -16 7.16895 -16 16v16c0 8.83105 7.16895 16 16 16h544zM276 229l-96.4004 95.5996c-10.1992 10.1006 -3.09961 27.4004 11.2002 27.4004h65.2002v80
c0 8.83105 7.16895 16 16 16h32c8.83105 0 16 -7.16895 16 -16v-79.9004h65.0996c14.3008 0 21.4004 -17.2998 11.3008 -27.3994l-96.4004 -95.7002c-3.0752 -3.06445 -7.32227 -4.96094 -12.0029 -4.96094s-8.92188 1.89648 -11.9971 4.96094z" />
    <glyph glyph-name="temperature-frigid-primary" unicode="&#xf768;" horiz-adv-x="576" 
d="M200.06 322.8v-56.8994l88 50.7998v-56.1006l-63.3994 -36.5996l63.4395 -36.7002v-7.2002c-7.96582 -11.5537 -14.6318 -24.1865 -19.6992 -37.5l-68.3008 39.5v-56.8994l40.4004 -40.2002c2.18066 -2.17285 3.53125 -5.18262 3.53125 -8.50195
c0 -3.31836 -1.35059 -6.3252 -3.53125 -8.49805l-8.5 -8.5c-2.17285 -2.18066 -5.18262 -3.53125 -8.50195 -3.53125c-3.31836 0 -6.3252 1.35059 -8.49805 3.53125l-14.8398 14.7998v-30.2998c0 -6.62305 -5.37695 -12 -12 -12h-24c-6.62305 0 -12 5.37695 -12 12v30.2998
l-14.7998 -14.7998c-2.17383 -2.18066 -5.18262 -3.53125 -8.50195 -3.53125s-6.3252 1.35059 -8.49805 3.53125l-8.5 8.5c-2.18164 2.17285 -3.53125 5.18262 -3.53125 8.50195c0 3.31836 1.34961 6.3252 3.53125 8.49805l40.1992 40.2002v56.8994l-50.3994 -29.0996
l-14.9004 -55.5996c-1.41016 -5.18457 -6.14844 -9.00391 -11.7773 -9.00391c-1.0791 0 -2.12598 0.140625 -3.12207 0.40332l-11.7002 3.10059c-5.18457 1.41016 -9.00391 6.14844 -9.00391 11.7773c0 1.0791 0.140625 2.12598 0.40332 3.12207l5.5 20.4004
l-26.5996 -15.2998c-1.79102 -1.0459 -3.87891 -1.66504 -6.10059 -1.66504c-4.48438 0 -8.40332 2.44043 -10.499 6.06445l-12.1006 21c-1.04492 1.79102 -1.66504 3.87891 -1.66504 6.10059c0 4.48438 2.44141 8.40332 6.06543 10.5l26.5 15.3994l-20.4004 5.5
c-5.18457 1.41016 -9.00293 6.14941 -9.00293 11.7783c0 1.07812 0.139648 2.125 0.40332 3.12207l3.09961 11.7002c1.41016 5.18457 6.14941 9.00293 11.7783 9.00293c1.0791 0 2.125 -0.139648 3.12207 -0.40332l55.7002 -15l50.1992 29l-50.1992 29l-55.6602 -14.9004
c-1.00684 -0.269531 -2.06055 -0.412109 -3.15234 -0.412109c-5.62305 0 -10.3594 3.8252 -11.748 9.0127l-3.09961 11.7002c-0.270508 1.00684 -0.412109 2.05957 -0.412109 3.15137c0 5.62305 3.82422 10.3594 9.01172 11.748l20.4004 5.5l-26.6006 15.2998
c-3.62402 2.09668 -6.04395 6.02051 -6.04395 10.5049c0 2.22168 0.599609 4.30469 1.64453 6.0957l12.0996 21c2.09668 3.62402 6.02051 6.04395 10.5049 6.04395c2.22168 0 4.30371 -0.598633 6.0957 -1.64453l26.5996 -15.2998l-5.54004 20.4004
c-0.270508 1.00684 -0.412109 2.06055 -0.412109 3.15234c0 5.62207 3.82422 10.3594 9.01172 11.7471l11.7002 3.2002c1.00684 0.270508 2.06055 0.412109 3.15234 0.412109c5.62305 0 10.3594 -3.82422 11.748 -9.01172l15 -55.7002l50.3398 -29.0996v56.8994
l-40.2402 40.2002c-2.18066 2.17285 -3.53125 5.18262 -3.53125 8.50195c0 3.31836 1.35059 6.3252 3.53125 8.49805l8.5 8.5c2.17383 2.18066 5.18262 3.53125 8.50195 3.53125s6.3252 -1.35059 8.49805 -3.53125l14.7998 -14.7998v30.2998c0 6.62305 5.37793 12 12 12h24
c6.62305 0 12 -5.37695 12 -12v-30.2998l14.7002 14.7998c2.17383 2.18066 5.18262 3.53125 8.50195 3.53125s6.3252 -1.35059 8.49805 -3.53125l8.5 -8.5c2.18066 -2.17285 3.53125 -5.18262 3.53125 -8.50195c0 -3.31836 -1.35059 -6.3252 -3.53125 -8.49805z
M448.06 125.1c18.6436 -6.59082 31.9863 -24.3809 31.9863 -45.2695c0 -26.4912 -21.5088 -48 -48 -48c-26.4922 0 -48 21.5088 -48 48c0 20.8887 13.3711 38.6787 32.0137 45.2695v18.9004c0 8.83105 7.16992 16 16 16c8.83105 0 16 -7.16895 16 -16v-18.9004z" />
    <glyph glyph-name="temperature-high-primary" unicode="&#xf769;" 
d="M416 448c52.9453 -0.0830078 95.917 -43.0547 96 -96c0 -52.9834 -43.0166 -96 -96 -96s-96 43.0166 -96 96s43.0166 96 96 96zM416 320c17.6611 0 32 14.3389 32 32s-14.3389 32 -32 32s-32 -14.3389 -32 -32s14.3389 -32 32 -32zM160 125.1
c18.6426 -6.59082 31.9854 -24.3809 31.9854 -45.2695c0 -26.4912 -21.5078 -48 -48 -48s-48 21.5088 -48 48c0 20.8887 13.3721 38.6787 32.0146 45.2695v210.9c0 8.83105 7.16895 16 16 16s16 -7.16895 16 -16v-210.9z" />
    <glyph glyph-name="temperature-hot-primary" unicode="&#xf76a;" horiz-adv-x="640" 
d="M160 224c0 35.2998 28.7002 64 64 64s64 -28.7002 64 -64s-28.7002 -64 -64 -64s-64 28.7002 -64 64zM237.6 439.6l41.4004 -82.7998l81.9004 27.2998c-5.40039 -15.0996 -8.90039 -31.1992 -8.90039 -48.0996v-155.9c-20.7998 -29.1992 -32 -64.0996 -32.0996 -100
c0 -0.899414 0.0996094 -1.69922 0.0996094 -2.5l-41.0996 13.7002l-41.4004 -82.8994c-1.40039 -2.90039 -3.7998 -5.30078 -6.7998 -6.80078c-7.5 -3.69922 -16.6006 -0.699219 -20.2998 6.80078l-41.4004 82.7998l-87.9004 -29.2998c-3.09961 -1 -6.5 -1 -9.59961 0
c-8 2.69922 -12.2998 11.2998 -9.59961 19.1992l29.2998 87.9004l-82.7998 41.5c-2.90039 1.40039 -5.30078 3.7998 -6.80078 6.7998c-3.69922 7.5 -0.699219 16.6006 6.80078 20.2998l82.7998 41.4004l-29.2998 87.9004c-1 3 -1 6.2998 0 9.39941
c2.59961 8 11.1992 12.4004 19.1992 9.7998l87.9004 -29.2998l41.4004 82.7998c1.5 2.90039 3.89941 5.30078 6.7998 6.80078c7.5 3.7998 16.5996 0.699219 20.3994 -6.80078zM291.9 156.1c37.5 37.5 37.5 98.3008 0 135.801s-98.3008 37.5 -135.801 0
c-37.3994 -37.4004 -37.5 -98.4004 0 -135.801c37.5 -37.3994 98.3008 -37.3994 135.801 0zM512 125.1c13.7002 -4.7998 24.4004 -15.5996 29.2998 -29.2998c8.7998 -25 -4.2998 -52.5 -29.2998 -61.2998s-52.5 4.2998 -61.2998 29.2998s4.2998 52.5 29.2998 61.2998v210.9
c0 8.7998 7.2002 16 16 16s16 -7.2002 16 -16v-210.9z" />
    <glyph glyph-name="temperature-low-primary" unicode="&#xf76b;" 
d="M416 448c52.9453 -0.0830078 95.917 -43.0547 96 -96c0 -52.9834 -43.0166 -96 -96 -96s-96 43.0166 -96 96s43.0166 96 96 96zM416 320c17.6611 0 32 14.3389 32 32s-14.3389 32 -32 32s-32 -14.3389 -32 -32s14.3389 -32 32 -32zM160 125.1
c18.6426 -6.59082 31.9854 -24.3809 31.9854 -45.2695c0 -26.4912 -21.5078 -48 -48 -48s-48 21.5088 -48 48c0 20.8887 13.3721 38.6787 32.0146 45.2695v18.9004c0 8.83105 7.16895 16 16 16s16 -7.16895 16 -16v-18.9004z" />
    <glyph glyph-name="thunderstorm-primary" unicode="&#xf76c;" 
d="M512 224c0 -52.9834 -43.0166 -96 -96 -96h-30c1.23535 4.19434 1.89844 8.63281 1.89844 13.2256c0 25.8184 -20.9609 46.7803 -46.7793 46.7803c-0.0429688 0 -0.0761719 -0.00585938 -0.119141 -0.00585938h-30.5l10.9004 40.9004
c1.0293 3.86523 1.57812 7.92676 1.57812 12.1143c0 25.9355 -21.0459 46.9766 -46.9785 46.9854h-85c-23.8076 -0.0390625 -43.499 -17.8271 -46.5996 -40.7998l-15.9004 -119.2h-32.5c-52.9834 0 -96 43.0166 -96 96c0 42.5 27.7998 78.2002 66.0996 90.7998
c-1.34277 6.89258 -2.06348 13.9258 -2.09961 21.2002v0.0615234c0 61.7812 50.1582 111.939 111.94 111.939c0.0195312 0 0.0390625 -0.000976562 0.0595703 -0.000976562c43.2998 0 80.4004 -24.7998 99 -60.7998c14.7002 17.5 36.4004 28.7998 61 28.7998
c44.1533 0 80 -35.8467 80 -80c0.000976562 -0.158203 0.000976562 -0.316406 0.000976562 -0.475586c0 -5.40918 -0.551758 -10.624 -1.60059 -15.7246c0.5 0 1 0.200195 1.59961 0.200195c52.9834 0 96 -43.0166 96 -96z" />
    <glyph glyph-name="thunderstorm-moon-primary" unicode="&#xf76d;" horiz-adv-x="576" 
d="M350.58 222.5c37.1748 -6.8418 65.377 -39.4482 65.377 -78.5889c0 -44.1035 -35.8057 -79.9102 -79.9092 -79.9102c-0.0400391 0 -0.00878906 -0.000976562 -0.0478516 -0.000976562h-30l8.11035 14c3.73047 6.46289 5.86621 13.96 5.86621 21.9531
c0 24.2842 -19.6924 44.0469 -43.9766 44.0469h-16l6.59961 24.7002c0.959961 3.61035 1.47168 7.40332 1.47168 11.3145c0 24.2842 -19.7158 44 -44 44c-0.00878906 0 -0.0126953 -0.0146484 -0.0214844 -0.0146484h-68.0498
c-22.2959 -0.0673828 -40.7383 -16.7002 -43.71 -38.2002l-16 -120c0.0253906 -0.299805 0.0380859 -0.603516 0.0380859 -0.910156s-0.0126953 -0.589844 -0.0380859 -0.889648h-16.29c-44.0977 0.0654297 -79.8779 35.8877 -79.8779 80
c0 38.6816 27.5703 70.9873 64.0781 78.4004c0 0.5 -0.200195 1.09961 -0.200195 1.59961v0.142578c0 52.9014 42.9492 95.8496 95.8496 95.8496c32.1045 0 60.4922 -15.7324 77.8906 -39.9922c10.3477 5.04883 22.041 7.94824 34.3096 8
c39.1035 -0.0810547 71.6631 -28.3457 78.5098 -65.5h0.0205078z" />
    <glyph glyph-name="thunderstorm-sun-primary" unicode="&#xf76e;" horiz-adv-x="576" 
d="M510.58 222.5c37.1748 -6.8418 65.377 -39.4482 65.377 -78.5889c0 -44.1035 -35.8057 -79.9102 -79.9092 -79.9102c-0.0400391 0 -0.00878906 -0.000976562 -0.0478516 -0.000976562h-30l8.11035 14c3.73047 6.46289 5.86621 13.96 5.86621 21.9531
c0 24.2842 -19.6924 44.0469 -43.9766 44.0469h-16l6.59961 24.7002c0.959961 3.61035 1.47168 7.40332 1.47168 11.3145c0 24.2842 -19.7158 44 -44 44c-0.00878906 0 -0.0126953 -0.0146484 -0.0214844 -0.0146484h-68.0498
c-22.2959 -0.0673828 -40.7383 -16.7002 -43.71 -38.2002l-16 -120c0.0253906 -0.299805 0.0380859 -0.603516 0.0380859 -0.910156s-0.0126953 -0.589844 -0.0380859 -0.889648h-16.29c-44.0977 0.0654297 -79.8779 35.8877 -79.8779 80
c0 38.6816 27.5703 70.9873 64.0781 78.4004c0 0.5 -0.200195 1.09961 -0.200195 1.59961v0.142578c0 52.9014 42.9492 95.8496 95.8496 95.8496c32.1045 0 60.4922 -15.7324 77.8906 -39.9922c10.3477 5.04883 22.041 7.94824 34.3096 8
c39.1035 -0.0810547 71.6631 -28.3457 78.5098 -65.5h0.0205078z" />
    <glyph glyph-name="vote-nay-primary" unicode="&#xf771;" horiz-adv-x="640" 
d="M286.1 240l-51 50.9004c-2.87402 2.90234 -4.64941 6.89941 -4.64941 11.3027c0 4.40234 1.77539 8.39453 4.64941 11.2969l11.3008 11.2998c2.90234 2.87402 6.89941 4.65039 11.3027 4.65039c4.40234 0 8.39453 -1.77637 11.2969 -4.65039l50.9004 -50.8994
l50.8994 50.8994c2.90234 2.87402 6.89941 4.65039 11.3027 4.65039s8.39551 -1.77637 11.2979 -4.65039l11.2998 -11.2998c2.87402 -2.90234 4.64941 -6.89941 4.64941 -11.3027s-1.77539 -8.39453 -4.64941 -11.2969l-50.7998 -50.9004l50.8994 -50.9004
c2.87402 -2.90234 4.65039 -6.89941 4.65039 -11.3027c0 -4.40234 -1.77637 -8.39453 -4.65039 -11.2969l-11.2998 -11.2998c-2.90234 -2.87402 -6.89941 -4.65039 -11.3027 -4.65039s-8.39453 1.77637 -11.2969 4.65039l-50.9004 50.8994l-50.9004 -50.8994
c-2.90234 -2.87402 -6.89941 -4.65039 -11.3027 -4.65039c-4.40234 0 -8.39453 1.77637 -11.2969 4.65039l-11.2998 11.2998c-2.87402 2.90234 -4.65039 6.89941 -4.65039 11.3027s1.77637 8.39453 4.65039 11.2969zM608 128c17.6611 0 32 -14.3389 32 -32v-96
c0 -17.6611 -14.3389 -32 -32 -32h-576c-17.6611 0 -32 14.3389 -32 32v96c0 17.6611 14.3389 32 32 32h64v-64h-22.4004c-5.2998 0 -9.59961 -3.59961 -9.59961 -8v-16c0 -4.40039 4.2998 -8 9.59961 -8h492.801c5.2998 0 9.59961 3.59961 9.59961 8v16
c0 4.40039 -4.2998 8 -9.59961 8h-22.4004v64h64z" />
    <glyph glyph-name="vote-yea-primary" unicode="&#xf772;" horiz-adv-x="640" 
d="M285.3 156.1l-74.0996 74.7002c-1.96973 1.93359 -3.19141 4.62695 -3.19141 7.60156s1.22168 5.66602 3.19141 7.59863l25.5 25.2998c1.92871 1.94043 4.60156 3.14258 7.55176 3.14258c3 0 5.71191 -1.24316 7.64844 -3.24219l41.2998 -41.6006l95.2002 94.4004
c1.92871 1.93945 4.60156 3.1416 7.55078 3.1416c3 0 5.71191 -1.24316 7.64844 -3.24121l25.3008 -25.5c1.93945 -1.92969 3.1416 -4.60254 3.1416 -7.55176c0 -3 -1.24316 -5.71191 -3.24219 -7.64844l-128.3 -127.2c-1.92969 -1.93945 -4.60254 -3.1416 -7.55176 -3.1416
c-3 0 -5.71191 1.24316 -7.64844 3.24121zM608 128c17.6611 0 32 -14.3389 32 -32v-96c0 -17.6611 -14.3389 -32 -32 -32h-576c-17.6611 0 -32 14.3389 -32 32v96c0 17.6611 14.3389 32 32 32h64v-64h-22.4004c-5.2998 0 -9.59961 -3.59961 -9.59961 -8v-16
c0 -4.40039 4.2998 -8 9.59961 -8h492.801c5.2998 0 9.59961 3.59961 9.59961 8v16c0 4.40039 -4.2998 8 -9.59961 8h-22.4004v64h64z" />
    <glyph glyph-name="water-primary" unicode="&#xf773;" horiz-adv-x="576" 
d="M562.2 64.0703c8.09961 -0.900391 13.8994 -8.30078 13.7402 -16.3008v-31.6094c0 -9.10059 -7.60059 -16.7998 -16.7002 -16c-28.6094 2.53418 -55.7354 11.7168 -79.1201 25.7998c-55 -34.0996 -135.49 -34.6104 -192 0c-55 -34.0996 -135.49 -34.6104 -192 0
c-23.3105 -14.5 -50.6104 -23.4004 -79.4199 -25.9004c-9.10059 -0.799805 -16.7002 6.90039 -16.7002 16v32.21c0 7.90039 5.7002 14.9004 13.5996 15.7002c21.71 2.2998 42.21 10.2002 57.71 22.4102c13.8008 10.9004 33.6104 13.2002 47.1104 2
c38.3105 -31.7002 107.23 -31.8096 145.23 -1.7002c13.6992 10.9004 33.1992 13 46.6992 1.80078c38.5107 -31.9102 107.82 -31.9102 145.73 -1.5c6.61719 5.24805 15.04 8.38379 24.1328 8.38379c9.09375 0 17.46 -3.13574 24.0771 -8.38379
c15.7998 -12.4102 36.4004 -20.5107 57.9102 -22.9102zM562.2 208.07c8.09961 -0.900391 13.8994 -8.27051 13.7402 -16.2705v-31.5996c0 -9.10059 -7.60059 -16.7998 -16.7002 -16c-28.6123 2.53125 -55.7393 11.7178 -79.1201 25.8096
c-55 -34.1094 -135.49 -34.6094 -192 0c-55 -34.1094 -135.49 -34.6094 -192 0c-23.3105 -14.5098 -50.6104 -23.4102 -79.4199 -25.9102c-9.10059 -0.80957 -16.7002 6.89062 -16.7002 16v32.2002c0 7.90039 5.7002 14.9102 13.5996 15.6699
c21.71 2.2998 42.21 10.2002 57.71 22.4004c13.8008 10.8994 33.6104 13.21 47.1104 2c38.3105 -31.7002 107.23 -31.8105 145.23 -1.7002c13.6992 10.9004 33.1992 13.0098 46.6992 1.7998c38.5107 -31.9102 107.82 -31.9102 145.73 -1.5
c6.61719 5.24805 15.04 8.38379 24.1328 8.38379c9.09375 0 17.46 -3.13574 24.0771 -8.38379c15.7998 -12.3994 36.4004 -20.5 57.9102 -22.8994z" />
    <glyph glyph-name="water-lower-primary" unicode="&#xf774;" horiz-adv-x="576" 
d="M396.27 324.67l-96.2695 -95.7197c-3.0752 -3.06543 -7.31641 -4.96094 -11.9971 -4.96094s-8.92773 1.89551 -12.0029 4.96094l-96.2002 95.6201c-10.1797 10.0996 -3.08984 27.4297 11.2002 27.4297h65.0996v80c0 8.83105 7.16992 16 16 16h31.9004
c8.83105 0 16 -7.16895 16 -16v-79.9199h65c14.2598 0 21.3496 -17.3105 11.2695 -27.4102z" />
    <glyph glyph-name="water-rise-primary" unicode="&#xf775;" horiz-adv-x="576" 
d="M385.19 320h-65.1904v-80c0 -8.83105 -7.16895 -16 -16 -16h-32c-8.83105 0 -16 7.16895 -16 16v80h-65.2002c-14.2002 0 -21.3994 17.3096 -11.2002 27.3096l96.4004 95.6904c3.0752 3.06445 7.31641 4.96094 11.9971 4.96094s8.92773 -1.89648 12.0029 -4.96094
l96.4004 -95.6201c10.1895 -10.0498 3.08984 -27.3799 -11.21 -27.3799z" />
    <glyph glyph-name="wind-warning-primary" unicode="&#xf776;" horiz-adv-x="640" 
d="M540.17 128c46.4004 0 89 -31.2998 97.8896 -76.9004c1.25781 -6.19531 1.91992 -12.4629 1.91992 -19.0273c0 -52.9912 -43.0215 -96.0137 -96.0137 -96.0137c-46.4268 0 -85.2012 33.0234 -94.0957 76.8418c-0.19043 0.988281 -0.289062 1.99609 -0.289062 3.04004
c0 8.83984 7.1582 16.0215 15.9893 16.0596h32.7998c6.59961 0 13.0996 -3.7998 15.2002 -10.0996c4.02344 -13.0742 16.1982 -22.6133 30.584 -22.6133c17.6611 0 32 14.3389 32 32c0 2.08984 -0.201172 4.13379 -0.583984 6.11328
c-2.60059 15.6992 -17.5 26.5996 -33.4004 26.5996h-233.28c-0.545898 0.0517578 -1.08594 0.154297 -1.59961 0.299805c27.1182 16.3389 50.1641 37.8574 68.2998 63.7002h164.58zM635.27 286.5c20.5 -65.7998 -28.5 -126.5 -91.2695 -126.5h-150
c9.41211 19.7666 16.1338 41.5586 19.3799 64h128.8c16 0 30.8008 10.9004 33.4004 26.5996c0.383789 1.97949 0.59082 3.99707 0.59082 6.08691c0 17.6611 -14.3389 32 -32 32c-14.3857 0 -26.5674 -9.5127 -30.5908 -22.5869
c-2.09961 -6.2998 -8.5 -10.0996 -15.2002 -10.0996h-32.7998c-9.90039 0 -17.7002 9.09961 -15.7002 18.9004c10.6904 53.2998 65.6006 90.7998 124.69 72.3994c28.793 -9.23047 51.5146 -31.9863 60.6992 -60.7998zM192 192c17.6611 0 32 -14.3389 32 -32
s-14.3389 -32 -32 -32s-32 14.3389 -32 32s14.3389 32 32 32zM214.3 384c8.82129 -0.0107422 15.9814 -7.16016 15.9814 -15.9834c0 -0.545898 -0.0273438 -1.08496 -0.0810547 -1.61621l-12.7998 -128c-0.811523 -8.06641 -7.62402 -14.3906 -15.9004 -14.4004h-19
c-8.27637 0.00976562 -15.0889 6.33398 -15.9004 14.4004l-12.7998 128c-0.0537109 0.53125 -0.0800781 1.05371 -0.0800781 1.59961c0 8.82422 7.15918 15.9893 15.9805 16h44.5996z" />
    <glyph glyph-name="bolt-secondary" unicode="&#x10f0e7;" horiz-adv-x="320" 
d="M224 423.81c-0.0078125 -2.07422 -0.28418 -4.08105 -0.790039 -6l-42.5996 -129.81l-37.9004 -128h-118.71c-13.2461 0 -24 10.7539 -24 24c0 1.09277 0.0712891 2.14551 0.209961 3.2002l32 240c1.57715 11.7236 11.6318 20.7754 23.7852 20.7754l0.00488281 0.0244141
h144c13.2539 -0.0498047 23.998 -10.8252 23.998 -24.0898c0 -0.0341797 0.00195312 -0.0664062 0.00195312 -0.100586z" />
    <glyph glyph-name="sun-secondary" unicode="&#x10f185;" 
d="M502.42 207.5c5.6875 -2.84375 9.59668 -8.7041 9.59668 -15.4912c0 -6.86523 -4.00098 -12.8037 -9.79688 -15.6084l-94.7002 -47.3008l33.5 -100.399c4.60059 -13.5 -8.2998 -26.4004 -21.8994 -21.9004l-100.4 33.5l-47.3096 -94.7002
c-2.83398 -5.69922 -8.69824 -9.62012 -15.4902 -9.62012s-12.6758 3.9209 -15.5098 9.62012l-47.2998 94.7002l-100.41 -33.5c-13.5 -4.59961 -26.4004 8.2998 -21.9004 21.9004l33.5 100.5l-94.7002 47.2998c-5.69922 2.83398 -9.62012 8.69727 -9.62012 15.4902
c0 6.79199 3.9209 12.6758 9.62012 15.5098l94.7002 47.4004l-33.5 100.399c-4.59961 13.5 8.2998 26.4004 21.9004 21.9004l100.51 -33.5l47.2998 94.7002c2.83398 5.69922 8.69824 9.62012 15.4902 9.62012s12.6758 -3.9209 15.5098 -9.62012l47.4102 -94.8008l100.4 33.5
c13.5 4.60059 26.3994 -8.2998 21.8994 -21.8994l-33.5 -100.4zM346.52 101.5c23.1328 23.1846 37.4443 55.2119 37.4443 90.5186s-14.3115 67.2969 -37.4443 90.4814c-49.8994 49.9004 -131.1 49.9004 -181 0c-23.1328 -23.1846 -37.4434 -55.2119 -37.4434 -90.5186
s14.3105 -67.2969 37.4434 -90.4814c49.8906 -49.9004 131.091 -49.9004 181 0z" />
    <glyph glyph-name="snowflake-secondary" unicode="&#x10f2dc;" horiz-adv-x="448" 
d="M138.08 6.33984l0.160156 0.160156l53.6602 53.6602l-0.0605469 -67.8604l-19.7002 -19.7002c-2.90234 -2.87402 -6.89941 -4.64941 -11.3027 -4.64941c-4.40234 0 -8.39453 1.77539 -11.2969 4.64941l-11.2998 11.3008
c-2.91992 2.87793 -4.72852 6.88281 -4.72852 11.3027c0 4.33789 1.74414 8.27148 4.56836 11.1367zM91.3701 364.1c1.25977 0.332031 2.57617 0.506836 3.94043 0.506836c7.13184 0 13.1426 -4.83691 14.9297 -11.4062l19 -70.7402l-56.6699 32.7402l-7 26
c-0.338867 1.27051 -0.516602 2.59863 -0.516602 3.97461c0 7.13379 4.84277 13.1455 11.416 14.9248zM65.4502 42.7002l7 26l56.6895 32.7295l-19 -70.7295c-1.78418 -6.57227 -7.79004 -11.4141 -14.9238 -11.4141c-1.37109 0 -2.7002 0.178711 -3.96582 0.513672
l-14.9004 4c-6.57324 1.7793 -11.418 7.78418 -11.418 14.918c0 1.37695 0.179688 2.71191 0.518555 3.98242zM420.45 209.9l-70.7002 18.9697l56.7002 32.7295l26 -7c6.57324 -1.7832 11.416 -7.79004 11.416 -14.9248c0 -1.37402 -0.179688 -2.70605 -0.516602 -3.97461
l-4 -14.9004c-1.78809 -6.57227 -7.7959 -11.4141 -14.9316 -11.4141c-1.37109 0 -2.70117 0.178711 -3.96777 0.514648zM8.66992 220.8l-4 14.9004c-0.342773 1.28027 -0.522461 2.62012 -0.522461 4.00781c0 7.18164 4.8916 13.2305 11.5225 14.9922l25.9502 7
l56.7197 -32.7998l-70.7695 -19c-1.26855 -0.336914 -2.59473 -0.513672 -3.96875 -0.513672c-7.13477 0 -13.1475 4.83984 -14.9316 11.4131zM27.54 174.1l70.7598 -18.9893l-56.7598 -32.71l-26 7c-6.57422 1.7793 -11.4189 7.78418 -11.4189 14.918
c0 1.37598 0.180664 2.71094 0.518555 3.98145l4 14.9004c1.78418 6.57324 7.79004 11.416 14.9248 11.416c1.37402 0 2.70703 -0.179688 3.97559 -0.516602zM149.74 411.3c2.90039 2.8623 6.88965 4.62988 11.2822 4.62988c4.39355 0 8.37695 -1.76758 11.2773 -4.62988
l19.7002 -19.7002v-67.8994l-53.6602 53.7002c-2.91895 2.87793 -4.72852 6.88281 -4.72852 11.3027c0 4.33789 1.74414 8.27148 4.56836 11.1367c0.0488281 0.0585938 0.101562 0.111328 0.160156 0.160156zM443.44 148.2
c0.341797 -1.27832 0.522461 -2.61523 0.522461 -4.00098c0 -7.13086 -4.83496 -13.1416 -11.4033 -14.9297l-26 -7l-56.6895 32.7305l70.6699 19c1.2666 0.334961 2.58984 0.511719 3.96094 0.511719c7.13574 0 13.1504 -4.83887 14.9395 -11.4121zM382.54 341.2
l-7.00977 -26l-56.6904 -32.7402l19 70.7402c1.77539 6.57422 7.77832 11.4209 14.9111 11.4209c1.37891 0 2.71582 -0.181641 3.98926 -0.521484l14.8994 -4c6.57324 -1.7832 11.417 -7.79004 11.417 -14.9248c0 -1.37402 -0.179688 -2.70605 -0.516602 -3.97461z
M375.54 68.7998l7.01953 -26c0.336914 -1.26855 0.513672 -2.59375 0.513672 -3.96777c0 -7.13477 -4.83984 -13.1484 -11.4131 -14.9316l-14.9004 -4c-1.26758 -0.336914 -2.59277 -0.513672 -3.96582 -0.513672c-7.13281 0 -13.1436 4.84082 -14.9238 11.4131l-19 70.7305
zM256 60.2998l53.4004 -53.7002c2.87109 -2.90332 4.64551 -6.90039 4.64551 -11.3027s-1.77441 -8.39355 -4.64551 -11.2969l-11.3008 -11.2998c-2.90234 -2.87402 -6.89941 -4.65039 -11.3027 -4.65039c-4.40234 0 -8.39453 1.77637 -11.2969 4.65039l-19.6602 19.6602z
M298.4 411.3l11.3096 -11.2998c2.87207 -2.90332 4.64551 -6.90039 4.64551 -11.3027s-1.77344 -8.39355 -4.64551 -11.2969l-53.71 -53.7002v67.8994l19.7998 19.7002c2.90234 2.87402 6.89941 4.65039 11.3027 4.65039s8.39551 -1.77637 11.2979 -4.65039z" />
    <glyph glyph-name="cloud-moon-secondary" unicode="&#x10f6c3;" horiz-adv-x="576" 
d="M574 134.53c-32.8076 -40.4512 -81.8516 -67.1602 -137.1 -70.5303c-11.1309 23.2832 -30.0264 41.9102 -53.5 52.7002c0.398438 3.52832 0.603516 7.11426 0.603516 10.749c0 0.0234375 -0.00390625 -0.0527344 -0.00390625 -0.0292969
c0 53 -43.0996 96.1699 -96 96.1699h-0.078125c-12.8379 0 -25.1445 -2.59082 -36.3223 -7.20996c-5.16309 5.24609 -10.6816 9.94824 -16.6992 14.2197c-1.15039 8.25 -1.75781 16.4961 -1.80078 25.0508c0 106.29 86 192.35 191.9 192.35
c12.0361 -0.0224609 23.6582 -1.12109 35.0996 -3.20996c8.2002 -1.59961 10.1006 -12.6201 2.80078 -16.7305c-45.5303 -25.9229 -76.2617 -74.8984 -76.2617 -130.994c0 -0.0341797 0.161133 0.0283203 0.161133 -0.00585938c0 -94.1699 85.4004 -165.699 178.5 -148
c0.563477 0.111328 1.14551 0.168945 1.74121 0.168945c4.96777 0 9 -4.03223 9 -9c0 -2.15918 -0.771484 -4.14746 -2.04102 -5.69824z" />
    <glyph glyph-name="cloud-sun-secondary" unicode="&#x10f6c4;" horiz-adv-x="640" 
d="M366.8 386.11c1.51562 0.508789 3.13672 0.786133 4.82227 0.786133c8.36719 0 15.1602 -6.79297 15.1602 -15.1602c0 -1.68359 -0.274414 -3.30273 -0.782227 -4.81641l-29.7998 -88.8896c-10.5693 -1.37402 -20.9805 -3.95312 -30.7002 -7.5
c-17.4365 39.21 -56.71 66.4805 -102.358 66.4805c-61.8145 0 -112 -50.1855 -112 -112c0 -31.3311 12.8926 -59.6748 33.6582 -80.0107c10.2324 -10.2334 22.4082 -18.4043 36 -24c-9.57812 -9.82031 -17.5225 -21.0674 -23.5996 -33.5303l-76.1006 -25.29
c-1.51465 -0.508789 -3.13574 -0.786133 -4.82227 -0.786133c-8.36621 0 -15.1592 6.79297 -15.1592 15.1602c0 1.68359 0.274414 3.30273 0.782227 4.81641l29.2998 87.7803l-82.7998 41.3994c-4.98535 2.47363 -8.41602 7.59863 -8.41602 13.5361
c0 5.93848 3.43066 11.0811 8.41602 13.5537l82.7998 41.4902l-29.2998 87.79c-0.482422 1.48242 -0.745117 3.0625 -0.745117 4.70508c0 8.40527 6.82422 15.2295 15.2305 15.2295c1.64453 0 3.22949 -0.260742 4.71387 -0.744141l87.9004 -29.29l41.4004 82.7793
c2.47559 4.98438 7.60254 8.41309 13.541 8.41309s11.082 -3.42871 13.5586 -8.41309l41.5 -82.7793zM224 308c34.0352 -0.0693359 63.3145 -20.3193 76.5 -49.4697c-36.3818 -22.4297 -61.916 -60.6338 -67.4004 -105
c-8.83203 -2.98828 -17.3457 -6.95801 -25.1992 -11.7002c-38.6309 7.48242 -67.9092 41.5166 -67.9092 82.3203c0 46.2773 37.5723 83.8496 83.8496 83.8496h0.15918z" />
    <glyph glyph-name="wind-secondary" unicode="&#x10f72e;" 
d="M508.88 53.29c-9.59961 -41.0996 -43.5 -74 -84.6895 -82.7002c-58.9004 -12.5 -111.601 21.7002 -129.391 72.2998c-3.7002 10.3008 4.40039 21.1006 15.29 21.1006h33.7998c5.80078 0 11.6006 -2.60059 14.5 -7.60059
c8.24414 -14.5068 23.8389 -24.3008 41.7021 -24.3008c26.4541 0 47.9307 21.4766 47.9307 47.9297s-21.4766 47.9307 -47.9307 47.9307c-0.0205078 0 -0.0703125 0.0507812 -0.0917969 0.0507812h-116.5c-6.54492 25.248 -20.626 47.4619 -39.7998 64h156.3
c70.4805 0 126 -65.5 108.88 -138.71z" />
    <glyph glyph-name="ballot-secondary" unicode="&#x10f732;" horiz-adv-x="384" 
d="M360 448c0.0205078 0 0.0400391 0.000976562 0.0605469 0.000976562c13.2119 0 23.9395 -10.7266 23.9395 -23.9395v-0.0615234v-464c0 -0.0205078 0.000976562 -0.0400391 0.000976562 -0.0605469c0 -13.2119 -10.7266 -23.9395 -23.9395 -23.9395h-0.0615234h-336
c-0.0205078 0 -0.0400391 -0.000976562 -0.0605469 -0.000976562c-13.2119 0 -23.9395 10.7266 -23.9395 23.9395v0.0615234v464c0 0.0205078 -0.000976562 0.0400391 -0.000976562 0.0605469c0 13.2119 10.7266 23.9395 23.9395 23.9395h0.0615234h336zM128 48v32
c0 8.83105 -7.16895 16 -16 16h-32c-8.83105 0 -16 -7.16895 -16 -16v-32c0 -8.83105 7.16895 -16 16 -16h32c8.83105 0 16 7.16895 16 16zM128 176v32c0 8.83105 -7.16895 16 -16 16h-32c-8.83105 0 -16 -7.16895 -16 -16v-32c0 -8.83105 7.16895 -16 16 -16h32
c8.83105 0 16 7.16895 16 16zM128 304v32c0 8.83105 -7.16895 16 -16 16h-32c-8.83105 0 -16 -7.16895 -16 -16v-32c0 -8.83105 7.16895 -16 16 -16h32c8.83105 0 16 7.16895 16 16zM320 56v16c0 4.41504 -3.58496 8 -8 8h-144c-4.41504 0 -8 -3.58496 -8 -8v-16
c0 -4.41504 3.58496 -8 8 -8h144c4.41504 0 8 3.58496 8 8zM320 184v16c0 4.41504 -3.58496 8 -8 8h-144c-4.41504 0 -8 -3.58496 -8 -8v-16c0 -4.41504 3.58496 -8 8 -8h144c4.41504 0 8 3.58496 8 8zM320 312v16c0 4.41504 -3.58496 8 -8 8h-144
c-4.41504 0 -8 -3.58496 -8 -8v-16c0 -4.41504 3.58496 -8 8 -8h144c4.41504 0 8 3.58496 8 8z" />
    <glyph glyph-name="ballot-check-secondary" unicode="&#x10f733;" horiz-adv-x="384" 
d="M360 448c0.0205078 0 0.0400391 0.000976562 0.0605469 0.000976562c13.2119 0 23.9395 -10.7266 23.9395 -23.9395v-0.0615234v-464c0 -0.0205078 0.000976562 -0.0400391 0.000976562 -0.0605469c0 -13.2119 -10.7266 -23.9395 -23.9395 -23.9395h-0.0615234h-336
c-0.0205078 0 -0.0400391 -0.000976562 -0.0605469 -0.000976562c-13.2119 0 -23.9395 10.7266 -23.9395 23.9395v0.0615234v464c0 0.0205078 -0.000976562 0.0400391 -0.000976562 0.0605469c0 13.2119 10.7266 23.9395 23.9395 23.9395h0.0615234h336zM161.7 245.6
c-0.972656 0.973633 -2.31738 1.57715 -3.80078 1.57715s-2.82715 -0.603516 -3.7998 -1.57715l-47.5996 -47.1992l-20.5996 20.7998c-0.972656 0.973633 -2.31738 1.57617 -3.80078 1.57617s-2.82715 -0.602539 -3.7998 -1.57617l-12.7002 -12.6006
c-0.973633 -0.97168 -1.57617 -2.31738 -1.57617 -3.80078c0 -1.48242 0.602539 -2.82617 1.57617 -3.79883l36.9004 -37.2998c0.972656 -0.973633 2.31738 -1.57617 3.80078 -1.57617s2.82715 0.602539 3.79883 1.57617l64.2002 63.5996
c0.973633 0.972656 1.57617 2.31738 1.57617 3.80078s-0.602539 2.82715 -1.57617 3.7998zM64 336v-32c0 -8.83105 7.16895 -16 16 -16h32c8.83105 0 16 7.16895 16 16v32c0 8.83105 -7.16895 16 -16 16h-32c-8.83105 0 -16 -7.16895 -16 -16zM128 48v32
c0 8.83105 -7.16895 16 -16 16h-32c-8.83105 0 -16 -7.16895 -16 -16v-32c0 -8.83105 7.16895 -16 16 -16h32c8.83105 0 16 7.16895 16 16zM320 56v16c0 4.41504 -3.58496 8 -8 8h-144c-4.41504 0 -8 -3.58496 -8 -8v-16c0 -4.41504 3.58496 -8 8 -8h144
c4.41504 0 8 3.58496 8 8zM310.4 176c5.2998 0 9.59961 3.59961 9.59961 8h-0.0996094v16c0 4.40039 -4.30078 8 -9.60059 8h-109.7c-1.19922 -1.7998 -30.3994 -32 -30.3994 -32h140.2zM320 312v16c0 4.41504 -3.58496 8 -8 8h-144c-4.41504 0 -8 -3.58496 -8 -8v-16
c0 -4.41504 3.58496 -8 8 -8h144c4.41504 0 8 3.58496 8 8z" />
    <glyph glyph-name="booth-curtain-secondary" unicode="&#x10f734;" 
d="M480 448c17.6611 0 32 -14.3389 32 -32v-464c0 -8.83105 -7.16895 -16 -16 -16h-32c-8.83105 0 -16 7.16895 -16 16v496h32zM0 416c0 17.6611 14.3389 32 32 32h64v-64h-32v-432c0 -8.83105 -7.16895 -16 -16 -16h-32c-8.83105 0 -16 7.16895 -16 16v464z" />
    <glyph glyph-name="box-ballot-secondary" unicode="&#x10f735;" horiz-adv-x="576" 
d="M144 256l-0.5 175.8c0 8.94141 7.25879 16.2002 16.2002 16.2002l255.8 -0.599609c8.83105 0 16 -7.16992 16 -16l0.5 -175.4h-288z" />
    <glyph glyph-name="clipboard-list-check-secondary" unicode="&#x10f737;" horiz-adv-x="384" 
d="M336 384c26.4922 0 48 -21.5078 48 -48v-352c0 -26.4922 -21.5078 -48 -48 -48h-288c-26.4922 0 -48 21.5078 -48 48v352c0 26.4922 21.5078 48 48 48h80c-35.3223 0 -64 -28.6777 -64 -64h256c0 35.3223 -28.6777 64 -64 64h80zM65.5996 206.6
c-0.973633 -0.97168 -1.57617 -2.31738 -1.57617 -3.80078c0 -1.48242 0.602539 -2.82617 1.57617 -3.79883l36.9004 -37.2998c0.972656 -0.973633 2.31738 -1.57617 3.80078 -1.57617s2.82715 0.602539 3.79883 1.57617l64.2002 63.5996
c0.973633 0.972656 1.57617 2.31738 1.57617 3.80078s-0.602539 2.82715 -1.57617 3.7998l-12.5996 12.6992c-0.972656 0.973633 -2.31738 1.57715 -3.80078 1.57715s-2.82715 -0.603516 -3.7998 -1.57715l-47.5996 -47.1992l-20.5996 20.7998
c-0.972656 0.973633 -2.31738 1.57617 -3.80078 1.57617s-2.82715 -0.602539 -3.7998 -1.57617zM96 56c0.0205078 0 0.0400391 -0.000976562 0.0605469 -0.000976562c13.2119 0 23.9395 10.7266 23.9395 23.9395v0.0615234c0 13.2461 -10.7539 24 -24 24
s-24 -10.7539 -24 -24s10.7539 -24 24 -24zM320 72v16c0 4.41504 -3.58496 8 -8 8h-144c-4.41504 0 -8 -3.58496 -8 -8v-16c0 -4.41504 3.58496 -8 8 -8h144c4.41504 0 8 3.58496 8 8zM320 168v16c0 4.40039 -4.2998 8 -9.59961 8h-124l-32.3008 -32h156.301
c5.2998 0 9.59961 3.59961 9.59961 8z" />
    <glyph glyph-name="cloud-drizzle-secondary" unicode="&#x10f738;" 
d="M48 88c8.83105 0 16 -7.16895 16 -16v-40c0 -8.83105 -7.16895 -16 -16 -16s-16 7.16895 -16 16v40c0 8.83105 7.16895 16 16 16zM144 8c8.83105 0 16 -7.16895 16 -16v-40c0 -8.83105 -7.16895 -16 -16 -16s-16 7.16895 -16 16v40c0 8.83105 7.16895 16 16 16zM240 88
c8.83105 0 16 -7.16895 16 -16v-40c0 -8.83105 -7.16895 -16 -16 -16s-16 7.16895 -16 16v40c0 8.83105 7.16895 16 16 16zM336 8c8.83105 0 16 -7.16895 16 -16v-40c0 -8.83105 -7.16895 -16 -16 -16s-16 7.16895 -16 16v40c0 8.83105 7.16895 16 16 16zM432 88
c8.83105 0 16 -7.16895 16 -16v-40c0 -8.83105 -7.16895 -16 -16 -16s-16 7.16895 -16 16v40c0 8.83105 7.16895 16 16 16z" />
    <glyph glyph-name="cloud-hail-secondary" unicode="&#x10f739;" 
d="M384 96c17.6611 0 32 -14.3389 32 -32s-14.3389 -32 -32 -32s-32 14.3389 -32 32s14.3389 32 32 32zM192 0c17.6611 0 32 -14.3389 32 -32s-14.3389 -32 -32 -32s-32 14.3389 -32 32s14.3389 32 32 32zM320 0c17.6611 0 32 -14.3389 32 -32s-14.3389 -32 -32 -32
s-32 14.3389 -32 32s14.3389 32 32 32zM256 96c17.6611 0 32 -14.3389 32 -32s-14.3389 -32 -32 -32s-32 14.3389 -32 32s14.3389 32 32 32zM64 0c17.6611 0 32 -14.3389 32 -32s-14.3389 -32 -32 -32s-32 14.3389 -32 32s14.3389 32 32 32zM128 96
c17.6611 0 32 -14.3389 32 -32s-14.3389 -32 -32 -32s-32 14.3389 -32 32s14.3389 32 32 32z" />
    <glyph glyph-name="cloud-hail-mixed-secondary" unicode="&#x10f73a;" 
d="M183.89 77.8701c4.83496 -2.75391 8.06934 -7.96191 8.06934 -13.9189c0 -2.86035 -0.751953 -5.54688 -2.06934 -7.87109l-64 -112c-2.75293 -4.83691 -7.96289 -8.07422 -13.9209 -8.07422c-2.86328 0 -5.55273 0.753906 -7.87891 2.07422
c-4.84961 2.72656 -8.10254 7.92969 -8.10254 13.8848c0 2.87695 0.765625 5.57617 2.10254 7.90527l64 112c2.7168 4.85742 7.91992 8.11816 13.876 8.11816c2.88574 0 5.5918 -0.771484 7.92383 -2.11816zM279.19 78.2695
c5.26367 -2.68457 8.8457 -8.16309 8.8457 -14.4727c0 -2.55664 -0.591797 -4.97461 -1.64648 -7.12695l-16 -32c-2.63379 -5.22656 -8.04004 -8.7998 -14.2881 -8.7998h-0.0117188c-2.57129 0.0283203 -5.02539 0.642578 -7.2002 1.7002
c-5.27734 2.61621 -8.88379 8.06543 -8.88379 14.3506c0 2.56836 0.606445 4.99707 1.68457 7.14941l16 32c2.61523 5.27734 8.06543 8.88379 14.3506 8.88379c2.56836 0 4.99707 -0.606445 7.14941 -1.68457zM87.1904 78.2695
c5.25879 -2.68555 8.84863 -8.16211 8.84863 -14.4688c0 -2.55762 -0.59375 -4.97754 -1.64941 -7.13086l-16 -32c-2.63379 -5.22656 -8.04004 -8.7998 -14.2881 -8.7998h-0.0117188c-2.57129 0.0283203 -5.02539 0.642578 -7.2002 1.7002
c-5.27734 2.61621 -8.88379 8.06543 -8.88379 14.3506c0 2.56836 0.606445 4.99707 1.68457 7.14941l16 32c2.61523 5.27734 8.06543 8.88379 14.3506 8.88379c2.56836 0 4.99707 -0.606445 7.14941 -1.68457zM471.19 78.2695
c5.26367 -2.68457 8.83594 -8.16309 8.83594 -14.4727c0 -2.55664 -0.591797 -4.97461 -1.64648 -7.12695l-16 -32c-2.63379 -5.22656 -8.04004 -8.7998 -14.2881 -8.7998h-0.0117188c-2.57227 0.0283203 -5.02637 0.642578 -7.2002 1.7002
c-5.27344 2.61719 -8.87598 8.06445 -8.87598 14.3467c0 2.57031 0.607422 5 1.68652 7.15332l16 32c2.61523 5.27734 8.06543 8.88379 14.3506 8.88379c2.56836 0 4.99707 -0.606445 7.14941 -1.68457zM375.9 77.8701c4.83887 -2.75293 8.06641 -7.96387 8.06641 -13.9238
c0 -2.8584 -0.750977 -5.54297 -2.06641 -7.86621l-64 -112c-2.75391 -4.83691 -7.96289 -8.07422 -13.9219 -8.07422c-2.86328 0 -5.55176 0.753906 -7.87891 2.07422c-4.84961 2.72656 -8.10156 7.92969 -8.10156 13.8848c0 2.87695 0.764648 5.57617 2.10156 7.90527
l64 112c2.71777 4.85742 7.91992 8.11816 13.877 8.11816c2.88477 0 5.59082 -0.771484 7.92383 -2.11816zM32 0c17.6611 0 32 -14.3389 32 -32s-14.3389 -32 -32 -32s-32 14.3389 -32 32s14.3389 32 32 32zM224 0c17.6611 0 32 -14.3389 32 -32s-14.3389 -32 -32 -32
s-32 14.3389 -32 32s14.3389 32 32 32zM416 0c17.6611 0 32 -14.3389 32 -32s-14.3389 -32 -32 -32s-32 14.3389 -32 32s14.3389 32 32 32z" />
    <glyph glyph-name="cloud-meatball-secondary" unicode="&#x10f73b;" 
d="M48 96c26.4922 0 48 -21.5078 48 -48s-21.5078 -48 -48 -48s-48 21.5078 -48 48s21.5078 48 48 48zM464 96c26.4922 0 48 -21.5078 48 -48s-21.5078 -48 -48 -48s-48 21.5078 -48 48s21.5078 48 48 48zM345 84.9004c13.5 -7 23 -20.7002 23 -36.9004
s-9.5 -29.9004 -23 -36.9004c4.59961 -14.5 1.7002 -30.7998 -9.7998 -42.2998c-7.56934 -7.59961 -18.0449 -12.2998 -29.6084 -12.2998h-0.0917969c-4.2998 0 -8.5 1.2002 -12.5996 2.5c-7 -13.5 -20.7002 -23 -36.9004 -23s-29.9004 9.5 -36.9004 23
c-3.92676 -1.48047 -8.19043 -2.3623 -12.5996 -2.5c-0.0302734 0 -0.0644531 -0.00585938 -0.0957031 -0.00585938c-11.5625 0 -22.0352 4.70605 -29.6045 12.3057c-11.5 11.5 -14.5 27.7998 -9.89941 42.2998c-13.5 7 -23 20.7002 -23 36.9004s9.5 29.9004 23 36.9004
c-4.5 14.5 -1.60059 30.7998 9.89941 42.2998s27.7998 14.5 42.2998 9.89941c7 13.5 20.7002 23 36.9004 23s29.9004 -9.5 36.9004 -23c14.5 4.5 30.8994 1.60059 42.2998 -9.89941c11.3994 -11.5 14.3994 -27.7998 9.7998 -42.2998z" />
    <glyph glyph-name="cloud-moon-rain-secondary" unicode="&#x10f73c;" horiz-adv-x="576" 
d="M567.9 224.2c6.19922 1.2002 10.5996 -6 6.39941 -10.7998c-26.5986 -32.5801 -67.0186 -53.3008 -112.316 -53.3008h-0.283203c-5.2002 0 -10.1006 1 -15.2002 1.5c-6.31348 39.79 -33.5967 72.6855 -70.2002 86.8008
c-10.6904 27.6006 -31.9307 49.7871 -58.8994 61.6992c3.2998 76.7002 66.5 137.9 144.399 137.9c0.0234375 0 -0.0810547 0.00195312 -0.0585938 0.00195312c9.06738 0 17.9443 -0.824219 26.5586 -2.40234c3.13965 -0.573242 5.53516 -3.32129 5.53516 -6.625
c0 -2.51953 -1.38574 -4.71777 -3.43457 -5.875c-34.3428 -19.2744 -57.46 -55.958 -57.5 -98.0996c0 -70.5 64.5996 -124.1 135 -110.8zM364.5 29.9004c4.83691 -2.75391 8.07324 -7.96289 8.07324 -13.9219c0 -2.86328 -0.75293 -5.55176 -2.07324 -7.87891l-36.5996 -64
c-2.75391 -4.83594 -7.96289 -8.07324 -13.9219 -8.07324c-2.86328 0 -5.55176 0.753906 -7.87891 2.07324c-4.84668 2.73535 -8.09473 7.94141 -8.09473 13.8994c0 2.87402 0.761719 5.57129 2.09473 7.90137l36.6006 64c2.75293 4.83594 7.96289 8.07324 13.9209 8.07324
c2.86426 0 5.55273 -0.753906 7.87891 -2.07324zM268.5 29.9004c4.83691 -2.75391 8.07324 -7.96289 8.07324 -13.9219c0 -2.86328 -0.75293 -5.55176 -2.07324 -7.87891l-36.5996 -64c-2.75391 -4.83594 -7.96289 -8.07324 -13.9219 -8.07324
c-2.86328 0 -5.55176 0.753906 -7.87891 2.07324c-4.84668 2.73535 -8.09473 7.94141 -8.09473 13.8994c0 2.87402 0.761719 5.57129 2.09473 7.90137l36.6006 64c2.75293 4.83594 7.96289 8.07324 13.9209 8.07324c2.86426 0 5.55273 -0.753906 7.87891 -2.07324z
M172.5 29.9004c4.83691 -2.75391 8.07324 -7.96289 8.07324 -13.9219c0 -2.86328 -0.75293 -5.55176 -2.07324 -7.87891l-36.5996 -64c-2.75391 -4.83594 -7.96289 -8.07324 -13.9219 -8.07324c-2.86328 0 -5.55176 0.753906 -7.87891 2.07324
c-4.84668 2.73535 -8.09473 7.94141 -8.09473 13.8994c0 2.87402 0.761719 5.57129 2.09473 7.90137l36.6006 64c2.75293 4.83594 7.96289 8.07324 13.9209 8.07324c2.86426 0 5.55273 -0.753906 7.87891 -2.07324zM76.5 29.9004
c4.83691 -2.75391 8.07324 -7.96289 8.07324 -13.9219c0 -2.86328 -0.75293 -5.55176 -2.07324 -7.87891l-36.5996 -64c-2.75391 -4.83594 -7.96289 -8.07324 -13.9219 -8.07324c-2.86328 0 -5.55176 0.753906 -7.87891 2.07324
c-4.84668 2.73535 -8.09473 7.94141 -8.09473 13.8994c0 2.87402 0.761719 5.57129 2.09473 7.90137l36.6006 64c2.75293 4.83594 7.96289 8.07324 13.9209 8.07324c2.86426 0 5.55273 -0.753906 7.87891 -2.07324z" />
    <glyph glyph-name="cloud-rain-secondary" unicode="&#x10f73d;" 
d="M88 73.7803c0.916016 3.56348 4.15137 6.2002 7.99902 6.2002s7.08496 -2.63672 8.00098 -6.2002c12.7998 -44.6006 40 -56.29 40 -87.6904c0 -27.6895 -21.5 -50.0898 -48 -50.0898s-48 22.4004 -48 50.0898c0 31.2998 27.2002 43.29 40 87.6904zM248 73.7803
c0.916016 3.56348 4.15137 6.2002 7.99902 6.2002s7.08496 -2.63672 8.00098 -6.2002c12.7998 -44.6006 40 -56.29 40 -87.6904c0 -27.6895 -21.5 -50.0898 -48 -50.0898s-48 22.4004 -48 50.0898c0 31.2998 27.2002 43.29 40 87.6904zM424 73.7803
c12.7998 -44.6006 40 -56.29 40 -87.6904c0 -27.6895 -21.5 -50.0898 -48 -50.0898s-48 22.4004 -48 50.0898c0 31.2998 27.2002 43.29 40 87.6904c0.916016 3.56348 4.15137 6.2002 7.99902 6.2002s7.08496 -2.63672 8.00098 -6.2002z" />
    <glyph glyph-name="cloud-rainbow-secondary" unicode="&#x10f73e;" horiz-adv-x="576" 
d="M430.8 143.1c-1.84277 11.6504 -5.89062 22.7842 -11.5996 32.6006c40.3359 39.7627 95.7432 64.2949 156.8 64.2998v-64c-47 0 -88.9004 -20.7998 -118.3 -53.2002c-8.01367 7.95312 -16.9834 14.7363 -26.9004 20.2998zM238.6 274.4
c75.6006 104.899 198.5 173.6 337.4 173.6v-64c-114.7 0 -216.4 -55.4004 -280.8 -140.6c-16.0107 14.2998 -35.3545 25.0479 -56.6006 31zM325.8 222.9c58.6006 73.6992 148.9 121.1 250.2 121.1v-64c-71.0859 0 -135.483 -29.0635 -181.8 -76
c-31.7002 24.2998 -61 19.7002 -68.4004 18.9004z" />
    <glyph glyph-name="cloud-showers-secondary" unicode="&#x10f73f;" 
d="M48 80c8.83105 0 16 -7.16895 16 -16v-80c0 -8.83105 -7.16895 -16 -16 -16s-16 7.16895 -16 16v80c0 8.83105 7.16895 16 16 16zM144 48c8.83105 0 16 -7.16895 16 -16v-80c0 -8.83105 -7.16895 -16 -16 -16s-16 7.16895 -16 16v80c0 8.83105 7.16895 16 16 16zM240 80
c8.83105 0 16 -7.16895 16 -16v-80c0 -8.83105 -7.16895 -16 -16 -16s-16 7.16895 -16 16v80c0 8.83105 7.16895 16 16 16zM336 48c8.83105 0 16 -7.16895 16 -16v-80c0 -8.83105 -7.16895 -16 -16 -16s-16 7.16895 -16 16v80c0 8.83105 7.16895 16 16 16zM432 80
c8.83105 0 16 -7.16895 16 -16v-80c0 -8.83105 -7.16895 -16 -16 -16s-16 7.16895 -16 16v80c0 8.83105 7.16895 16 16 16z" />
    <glyph glyph-name="cloud-showers-heavy-secondary" unicode="&#x10f740;" 
d="M183.9 77.9004c4.83594 -2.75391 8.07324 -7.96289 8.07324 -13.9219c0 -2.86328 -0.753906 -5.55176 -2.07324 -7.87891l-64 -112c-2.75391 -4.83594 -7.96289 -8.07324 -13.9219 -8.07324c-2.86328 0 -5.55176 0.753906 -7.87891 2.07324
c-4.85059 2.72949 -8.10254 7.93457 -8.10254 13.8916c0 2.87793 0.764648 5.57812 2.10254 7.90918l64 112c2.71777 4.85742 7.91992 8.11719 13.877 8.11719c2.88477 0 5.59082 -0.770508 7.92383 -2.11719zM279.9 77.9004
c4.83594 -2.75391 8.07324 -7.96289 8.07324 -13.9219c0 -2.86328 -0.753906 -5.55176 -2.07324 -7.87891l-64 -112c-2.75391 -4.83594 -7.96289 -8.07324 -13.9219 -8.07324c-2.86328 0 -5.55176 0.753906 -7.87891 2.07324
c-4.85059 2.72949 -8.10254 7.93457 -8.10254 13.8916c0 2.87793 0.764648 5.57812 2.10254 7.90918l64 112c2.71777 4.85742 7.91992 8.11719 13.877 8.11719c2.88477 0 5.59082 -0.770508 7.92383 -2.11719zM87.9004 77.9004
c4.83203 -2.75488 8.07617 -7.96191 8.07617 -13.918c0 -2.86523 -0.754883 -5.55469 -2.07617 -7.88281l-64 -112c-2.75391 -4.83594 -7.96289 -8.07324 -13.9219 -8.07324c-2.86328 0 -5.55176 0.753906 -7.87891 2.07324
c-4.85059 2.72949 -8.10254 7.93457 -8.10254 13.8916c0 2.87793 0.764648 5.57812 2.10254 7.90918l64 112c2.71777 4.85742 7.91992 8.11719 13.877 8.11719c2.88477 0 5.59082 -0.770508 7.92383 -2.11719zM471.9 77.9004
c4.84082 -2.75293 8.07129 -7.96484 8.07129 -13.9258c0 -2.8623 -0.75293 -5.54883 -2.07129 -7.875l-64 -112c-2.75391 -4.83594 -7.96289 -8.07324 -13.9219 -8.07324c-2.86328 0 -5.55176 0.753906 -7.87891 2.07324
c-4.85059 2.72949 -8.10254 7.93457 -8.10254 13.8916c0 2.87793 0.764648 5.57812 2.10254 7.90918l64 112c2.71777 4.85742 7.91992 8.11719 13.877 8.11719c2.88477 0 5.59082 -0.770508 7.92383 -2.11719zM375.9 77.9004
c4.84082 -2.75293 8.07129 -7.96484 8.07129 -13.9258c0 -2.8623 -0.75293 -5.54883 -2.07129 -7.875l-64 -112c-2.75391 -4.83594 -7.96289 -8.07324 -13.9219 -8.07324c-2.86328 0 -5.55176 0.753906 -7.87891 2.07324
c-4.85059 2.72949 -8.10254 7.93457 -8.10254 13.8916c0 2.87793 0.764648 5.57812 2.10254 7.90918l64 112c2.71777 4.85742 7.91992 8.11719 13.877 8.11719c2.88477 0 5.59082 -0.770508 7.92383 -2.11719z" />
    <glyph glyph-name="cloud-sleet-secondary" unicode="&#x10f741;" 
d="M87.2002 94.2998c5.26367 -2.68457 8.84668 -8.16406 8.84668 -14.4736c0 -2.55566 -0.592773 -4.97461 -1.64648 -7.12598l-64 -128c-2.63379 -5.22754 -8.04102 -8.7998 -14.2891 -8.7998h-0.0117188c-2.57129 0.0273438 -5.02539 0.641602 -7.19922 1.69922
c-5.27832 2.61621 -8.88477 8.06641 -8.88477 14.3516c0 2.56836 0.606445 4.99707 1.68457 7.14844l64 128c2.65625 5.25977 8.11426 8.84473 14.4043 8.84473c2.5459 0 4.9541 -0.591797 7.0957 -1.64453zM343.2 94.2998
c5.26367 -2.68457 8.84668 -8.16406 8.84668 -14.4736c0 -2.55566 -0.592773 -4.97461 -1.64648 -7.12598l-64 -128c-2.63379 -5.22754 -8.04102 -8.7998 -14.2891 -8.7998h-0.0117188c-2.57129 0.0273438 -5.02539 0.641602 -7.19922 1.69922
c-5.27832 2.61621 -8.88477 8.06641 -8.88477 14.3516c0 2.56836 0.606445 4.99707 1.68457 7.14844l64 128c2.65625 5.25977 8.11426 8.84473 14.4043 8.84473c2.5459 0 4.9541 -0.591797 7.0957 -1.64453zM492 16c2.37695 -1.3877 3.96191 -3.96875 3.96191 -6.91699
c0 -1.4502 -0.386719 -2.80957 -1.06152 -3.9834l-8 -13.8994c-1.3877 -2.37695 -3.96973 -3.96191 -6.91797 -3.96191c-1.44922 0 -2.80957 0.386719 -3.98242 1.06152l-28 16.1006v-28.4004c0 -4.41504 -3.58496 -8 -8 -8h-16c-4.41504 0 -8 3.58496 -8 8v28.4004
l-28 -16.1006c-1.17285 -0.674805 -2.53613 -1.0752 -3.98633 -1.0752c-2.94824 0 -5.52637 1.59863 -6.91406 3.97559l-8 13.8994c-0.674805 1.17383 -1.0752 2.53711 -1.0752 3.98633c0 2.94824 1.59863 5.52637 3.97559 6.91406l27.9004 16l-27.9004 16
c-2.37695 1.3877 -3.96191 3.96875 -3.96191 6.91699c0 1.4502 0.386719 2.80957 1.06152 3.9834l8 13.8994c1.3877 2.37695 3.96973 3.96191 6.91797 3.96191c1.44922 0 2.80957 -0.386719 3.98242 -1.06152l28 -16.1006v28.4004c0 4.41504 3.58496 8 8 8h16
c4.41504 0 8 -3.58496 8 -8v-28.4004l28 16.1006c1.17285 0.674805 2.53613 1.0752 3.98633 1.0752c2.94824 0 5.52637 -1.59863 6.91406 -3.97559l8 -13.8994c0.674805 -1.17383 1.0752 -2.53711 1.0752 -3.98633c0 -2.94824 -1.59863 -5.52637 -3.97559 -6.91406
l-27.9004 -16zM238.9 58.9004c0.674805 -1.17383 1.0752 -2.53711 1.0752 -3.98633c0 -2.94824 -1.59863 -5.52637 -3.97559 -6.91406l-27.9004 -16l27.9004 -16c2.37695 -1.3877 3.96191 -3.96875 3.96191 -6.91699c0 -1.4502 -0.386719 -2.80957 -1.06152 -3.9834
l-8 -13.8994c-1.3877 -2.37695 -3.96973 -3.96191 -6.91797 -3.96191c-1.44922 0 -2.80957 0.386719 -3.98242 1.06152l-28 16.1006v-28.4004c0 -4.41504 -3.58496 -8 -8 -8h-16c-4.41504 0 -8 3.58496 -8 8v28.4004l-28 -16.1006
c-1.17285 -0.674805 -2.53613 -1.0752 -3.98633 -1.0752c-2.94824 0 -5.52637 1.59863 -6.91406 3.97559l-8 13.8994c-0.674805 1.17383 -1.0752 2.53711 -1.0752 3.98633c0 2.94824 1.59863 5.52637 3.97559 6.91406l27.9004 16l-27.9004 16
c-2.37695 1.3877 -3.96191 3.96875 -3.96191 6.91699c0 1.4502 0.386719 2.80957 1.06152 3.9834l8 13.8994c1.3877 2.37695 3.96973 3.96191 6.91797 3.96191c1.44922 0 2.80957 -0.386719 3.98242 -1.06152l28 -16.1006v28.4004c0 4.41504 3.58496 8 8 8h16
c4.41504 0 8 -3.58496 8 -8v-28.4004l28 16.1006c1.17285 0.674805 2.53613 1.0752 3.98633 1.0752c2.94824 0 5.52637 -1.59863 6.91406 -3.97559z" />
    <glyph glyph-name="cloud-snow-secondary" unicode="&#x10f742;" 
d="M126.9 58.9004c0.674805 -1.17383 1.0752 -2.53711 1.0752 -3.98633c0 -2.94824 -1.59863 -5.52637 -3.97559 -6.91406l-27.9004 -16l27.9004 -16c2.37695 -1.3877 3.96191 -3.96875 3.96191 -6.91699c0 -1.4502 -0.386719 -2.80957 -1.06152 -3.9834l-8 -13.8994
c-1.3877 -2.37695 -3.96973 -3.96191 -6.91797 -3.96191c-1.44922 0 -2.80957 0.386719 -3.98242 1.06152l-28 16.1006v-28.4004c0 -4.41504 -3.58496 -8 -8 -8h-16c-4.41504 0 -8 3.58496 -8 8v28.4004l-28 -16.1006c-1.17285 -0.674805 -2.53613 -1.0752 -3.98633 -1.0752
c-2.94824 0 -5.52637 1.59863 -6.91406 3.97559l-8 13.8994c-0.674805 1.17383 -1.0752 2.53711 -1.0752 3.98633c0 2.94824 1.59863 5.52637 3.97559 6.91406l27.9004 16l-27.9004 16c-2.37695 1.3877 -3.96191 3.96875 -3.96191 6.91699
c0 1.4502 0.386719 2.80957 1.06152 3.9834l8 13.8994c1.3877 2.37695 3.96973 3.96191 6.91797 3.96191c1.44922 0 2.80957 -0.386719 3.98242 -1.06152l28 -16.1006v28.4004c0 4.41504 3.58496 8 8 8h16c4.41504 0 8 -3.58496 8 -8v-28.4004l28 16.1006
c1.17285 0.674805 2.53613 1.0752 3.98633 1.0752c2.94824 0 5.52637 -1.59863 6.91406 -3.97559zM318.9 26.9004c0.674805 -1.17383 1.0752 -2.53711 1.0752 -3.98633c0 -2.94824 -1.59863 -5.52637 -3.97559 -6.91406l-27.9004 -16l27.9004 -16
c2.37695 -1.3877 3.96191 -3.96875 3.96191 -6.91699c0 -1.4502 -0.386719 -2.80957 -1.06152 -3.9834l-8 -13.8994c-1.3877 -2.37695 -3.96973 -3.96191 -6.91797 -3.96191c-1.44922 0 -2.80957 0.386719 -3.98242 1.06152l-28 16.1006v-28.4004
c0 -4.41504 -3.58496 -8 -8 -8h-16c-4.41504 0 -8 3.58496 -8 8v28.4004l-28 -16.1006c-1.17285 -0.674805 -2.53613 -1.0752 -3.98633 -1.0752c-2.94824 0 -5.52637 1.59863 -6.91406 3.97559l-8 13.8994c-0.674805 1.17383 -1.0752 2.53711 -1.0752 3.98633
c0 2.94824 1.59863 5.52637 3.97559 6.91406l27.9004 16l-27.9004 16c-2.37695 1.3877 -3.96191 3.96875 -3.96191 6.91699c0 1.4502 0.386719 2.80957 1.06152 3.9834l8 13.8994c1.3877 2.37695 3.96973 3.96191 6.91797 3.96191
c1.44922 0 2.80957 -0.386719 3.98242 -1.06152l28 -16.1006v28.4004c0 4.41504 3.58496 8 8 8h16c4.41504 0 8 -3.58496 8 -8v-28.4004l28 16.1006c1.17285 0.674805 2.53613 1.0752 3.98633 1.0752c2.94824 0 5.52637 -1.59863 6.91406 -3.97559zM508 16
c2.37695 -1.3877 3.96191 -3.96875 3.96191 -6.91699c0 -1.4502 -0.386719 -2.80957 -1.06152 -3.9834l-8 -13.8994c-1.3877 -2.37695 -3.96973 -3.96191 -6.91797 -3.96191c-1.44922 0 -2.80957 0.386719 -3.98242 1.06152l-28 16.1006v-28.4004
c0 -4.41504 -3.58496 -8 -8 -8h-16c-4.41504 0 -8 3.58496 -8 8v28.4004l-28 -16.1006c-1.17285 -0.674805 -2.53613 -1.0752 -3.98633 -1.0752c-2.94824 0 -5.52637 1.59863 -6.91406 3.97559l-8 13.8994c-0.674805 1.17383 -1.0752 2.53711 -1.0752 3.98633
c0 2.94824 1.59863 5.52637 3.97559 6.91406l27.9004 16l-27.9004 16c-2.37695 1.3877 -3.96191 3.96875 -3.96191 6.91699c0 1.4502 0.386719 2.80957 1.06152 3.9834l8 13.8994c1.3877 2.37695 3.96973 3.96191 6.91797 3.96191
c1.44922 0 2.80957 -0.386719 3.98242 -1.06152l28 -16.1006v28.4004c0 4.41504 3.58496 8 8 8h16c4.41504 0 8 -3.58496 8 -8v-28.4004l28 16.1006c1.17285 0.674805 2.53613 1.0752 3.98633 1.0752c2.94824 0 5.52637 -1.59863 6.91406 -3.97559l8 -13.8994
c0.674805 -1.17383 1.0752 -2.53711 1.0752 -3.98633c0 -2.94824 -1.59863 -5.52637 -3.97559 -6.91406l-27.9004 -16z" />
    <glyph glyph-name="cloud-sun-rain-secondary" unicode="&#x10f743;" horiz-adv-x="576" 
d="M322 351.8c-0.700195 0 -1.2998 0.200195 -2 0.200195c-25.4707 -0.0664062 -49.3281 -7.7168 -69.2002 -20.7002c-37.5996 29.4004 -92.0996 27.2002 -126.7 -7.39941c-17.3369 -17.4053 -28.0605 -41.4316 -28.0605 -67.915
c0 -26.4824 10.7236 -50.4805 28.0605 -67.8857c3.21289 -3.01855 6.58203 -5.76074 10.2002 -8.2998c-3.93164 -11.2373 -6.13184 -23.3438 -6.2002 -35.8994c0 -2.5 0.5 -4.80078 0.700195 -7.2002l-59.2002 -19.7002
c-1.28906 -0.426758 -2.66504 -0.658203 -4.09668 -0.658203c-7.20801 0 -13.0596 5.85156 -13.0596 13.0596c0 1.43164 0.230469 2.80957 0.65625 4.09863l25.1006 75.2998l-71 35.5c-4.29102 2.125 -7.24414 6.53418 -7.24414 11.6426s2.95312 9.5332 7.24414 11.6572
l71 35.5l-25.1006 75.3008c-0.44043 1.30469 -0.680664 2.70117 -0.680664 4.1543c0 7.1748 5.8252 13 13 13c1.42578 0 2.79785 -0.230469 4.08105 -0.654297l75.2998 -25.1006l35.5 71c2.125 4.29102 6.53418 7.24414 11.6426 7.24414s9.5332 -2.95312 11.6572 -7.24414
l35.5 -71l75.3008 25.1006c1.30469 0.44043 2.70117 0.680664 4.1543 0.680664c7.1748 0 13 -5.8252 13 -13c0 -1.42578 -0.230469 -2.79785 -0.654297 -4.08105zM225.8 310.1c-16.1592 -17.4648 -27.5068 -39.6104 -31.8994 -64
c-18.084 -8.2998 -33.4287 -21.1074 -44.8008 -37.1992c-12.9346 11.585 -21.0625 28.3936 -21.0996 47.0996c0.0332031 35.3076 28.6924 63.9668 64 64c12.4072 -0.0273438 24.0469 -3.68164 33.7998 -9.90039zM524.5 29.9004
c4.83691 -2.75391 8.07324 -7.96289 8.07324 -13.9219c0 -2.86328 -0.75293 -5.55176 -2.07324 -7.87891l-36.5996 -64c-2.75391 -4.83594 -7.96289 -8.07324 -13.9219 -8.07324c-2.86328 0 -5.55176 0.753906 -7.87891 2.07324
c-4.84668 2.73535 -8.09473 7.94141 -8.09473 13.8994c0 2.87402 0.761719 5.57129 2.09473 7.90137l36.6006 64c2.75293 4.83594 7.96289 8.07324 13.9209 8.07324c2.86426 0 5.55273 -0.753906 7.87891 -2.07324zM428.5 29.9004
c4.83691 -2.75391 8.07324 -7.96289 8.07324 -13.9219c0 -2.86328 -0.75293 -5.55176 -2.07324 -7.87891l-36.5996 -64c-2.75391 -4.83594 -7.96289 -8.07324 -13.9219 -8.07324c-2.86328 0 -5.55176 0.753906 -7.87891 2.07324
c-4.84668 2.73535 -8.09473 7.94141 -8.09473 13.8994c0 2.87402 0.761719 5.57129 2.09473 7.90137l36.6006 64c2.75293 4.83594 7.96289 8.07324 13.9209 8.07324c2.86426 0 5.55273 -0.753906 7.87891 -2.07324zM332.5 29.9004
c4.83691 -2.75391 8.07324 -7.96289 8.07324 -13.9219c0 -2.86328 -0.75293 -5.55176 -2.07324 -7.87891l-36.5996 -64c-2.75391 -4.83594 -7.96289 -8.07324 -13.9219 -8.07324c-2.86328 0 -5.55176 0.753906 -7.87891 2.07324
c-4.84668 2.73535 -8.09473 7.94141 -8.09473 13.8994c0 2.87402 0.761719 5.57129 2.09473 7.90137l36.6006 64c2.75293 4.83594 7.96289 8.07324 13.9209 8.07324c2.86426 0 5.55273 -0.753906 7.87891 -2.07324zM236.5 29.9004
c4.83691 -2.75391 8.07324 -7.96289 8.07324 -13.9219c0 -2.86328 -0.75293 -5.55176 -2.07324 -7.87891l-36.5996 -64c-2.75391 -4.83594 -7.96289 -8.07324 -13.9219 -8.07324c-2.86328 0 -5.55176 0.753906 -7.87891 2.07324
c-4.84668 2.73535 -8.09473 7.94141 -8.09473 13.8994c0 2.87402 0.761719 5.57129 2.09473 7.90137l36.6006 64c2.75293 4.83594 7.96289 8.07324 13.9209 8.07324c2.86426 0 5.55273 -0.753906 7.87891 -2.07324z" />
    <glyph glyph-name="clouds-secondary" unicode="&#x10f744;" horiz-adv-x="640" 
d="M161.6 160h-65.5996c-52.9834 0 -96 43.0166 -96 96s43.0166 96 96 96c0.599609 0 1.09961 -0.200195 1.59961 -0.200195c7.7002 54.2998 54 96.2002 110.4 96.2002c47.8877 -0.0458984 88.7178 -30.2695 104.5 -72.7002c12.0039 5.52246 25.4385 8.66602 39.5 8.7002
c52.9834 0 96 -43.0166 96 -96c-0.0927734 -12.248 -2.59863 -24.0098 -7 -34.7002c-11.1758 -2.31348 -21.9346 -6.38574 -31.5996 -11.7998c-26.0771 28.5986 -63.6289 46.5547 -105.342 46.5547c-0.0244141 0 -0.0341797 -0.0546875 -0.0585938 -0.0546875
c-73.9004 0 -134.3 -56.2002 -142.4 -128z" />
    <glyph glyph-name="clouds-moon-secondary" unicode="&#x10f745;" horiz-adv-x="640" 
d="M638.48 190.13c-24.5488 -32.8447 -61.5566 -55.7822 -103.921 -62.1299c-17.1523 14.1348 -38.3486 23.8203 -61.3691 27.1602c-16.5039 33.8525 -49.6768 58.04 -88.7705 62.1201c-3.8916 24.1553 -15.4258 45.8838 -32.0596 62.3701
c0 0.699219 -0.240234 1.2998 -0.270508 2c-2.95996 88.8193 66.0098 163.229 153.91 166.26c1.83789 0.0644531 3.68262 0.0966797 5.53613 0.0966797c8.11035 0 15.8369 -0.618164 23.6143 -1.81641c3.61914 -0.5625 6.39258 -3.69531 6.39258 -7.4707
c0 -2.7041 -1.40625 -5.07324 -3.54297 -6.41016c-35.8428 -22.2979 -59.7227 -62.0469 -59.7227 -107.328c0 -1.51367 0.160156 -2.87109 0.212891 -4.37109c2.62012 -78.7705 75.5898 -136.11 152.399 -118.57c6.75 1.54004 11.7607 -6.24023 7.59082 -11.9102z" />
    <glyph glyph-name="clouds-sun-secondary" unicode="&#x10f746;" horiz-adv-x="640" 
d="M314.45 394.9c1.32031 0.452148 2.7373 0.699219 4.21094 0.699219c7.1748 0 13 -5.8252 13 -13c0 -1.43164 -0.232422 -2.81055 -0.661133 -4.09961l-26.3496 -78.4004c-7.67676 -5.34473 -14.5098 -11.5215 -20.5908 -18.5996
c-4.21875 16.2363 -12.6572 30.8213 -24.0996 42.4004c-17.4004 17.3389 -41.4238 28.0635 -67.9043 28.0635s-50.4756 -10.7246 -67.876 -28.0635c-17.6533 -17.2383 -28.7021 -41.2422 -28.7021 -67.8408c0 -35.0762 19.0713 -65.7344 47.4023 -82.1592
c-4.46973 -9.12598 -8.06055 -19.0059 -10.5 -29.1006c-7.1709 -3.8916 -13.8652 -8.42773 -20.0996 -13.5996l-42.6904 -14.2002c-1.28906 -0.426758 -2.66602 -0.658203 -4.09668 -0.658203c-7.20801 0 -13.0605 5.85156 -13.0605 13.0596
c0 1.43164 0.231445 2.80957 0.657227 4.09863l25.1006 75.2998l-71 35.5c-4.29102 2.125 -7.24414 6.53418 -7.24414 11.6426s2.95312 9.5332 7.24414 11.6572l71 35.5l-25.1006 75.3008c-0.425781 1.28906 -0.658203 2.66504 -0.658203 4.09668
c0 7.20801 5.85156 13.0596 13.0596 13.0596c1.43164 0 2.80957 -0.230469 4.09863 -0.65625l75.29 -25.1006l35.4902 71c2.12402 4.29102 6.53418 7.24414 11.6426 7.24414s9.53223 -2.95312 11.6572 -7.24414l35.4902 -71zM192.07 320
c35.3213 -0.0166016 63.9971 -28.6826 64.0293 -64c0 -0.5 -0.0996094 -0.900391 -0.0996094 -1.40039c-38.9727 -4.19629 -73.3076 -24.1621 -96.2305 -53.5c-18.9863 11.0537 -31.6953 31.5869 -31.6953 55.1211c0 35.2012 28.5781 63.7793 63.7793 63.7793h0.216797z" />
    <glyph glyph-name="democrat-secondary" unicode="&#x10f747;" horiz-adv-x="640" 
d="M544 96v-144c0 -8.83105 -7.16895 -16 -16 -16h-64c-8.83105 0 -16 7.16895 -16 16v80h-160v-80c0 -8.83105 -7.16895 -16 -16 -16h-64c-8.83105 0 -16 7.16895 -16 16v144h352z" />
    <glyph glyph-name="dewpoint-secondary" unicode="&#x10f748;" 
d="M416 448c52.9453 -0.0830078 95.917 -43.0547 96 -96c0 -52.9834 -43.0166 -96 -96 -96s-96 43.0166 -96 96s43.0166 96 96 96zM416 320c17.6611 0 32 14.3389 32 32s-14.3389 32 -32 32s-32 -14.3389 -32 -32s14.3389 -32 32 -32z" />
    <glyph glyph-name="eclipse-secondary" unicode="&#x10f749;" horiz-adv-x="640" 
d="M295.2 70.7998c8.50195 -11.835 18.0361 -22.5244 28.7998 -32.2998l-5.2998 1.7998l-47.2998 -94.7002c-2.83398 -5.69922 -8.69824 -9.62012 -15.4902 -9.62012c-6.79297 0 -12.6768 3.9209 -15.5098 9.62012l-47.3008 94.7002l-100.399 -33.5
c-13.5 -4.59961 -26.4004 8.2998 -21.9004 21.9004l33.5 100.5l-94.7002 47.2998c-5.69922 2.83398 -9.62012 8.69727 -9.62012 15.4902c0 6.79199 3.9209 12.6758 9.62012 15.5098l94.7002 47.4004l-33.5 100.399c-4.59961 13.5 8.2998 26.4004 21.9004 21.9004
l100.5 -33.5l47.2998 94.7002c2.83398 5.69922 8.69727 9.62012 15.4902 9.62012c6.79199 0 12.6758 -3.9209 15.5098 -9.62012l48.9004 -96.3008c-9.30371 -8.86621 -17.6055 -18.4209 -25.1006 -28.8994c-44.2998 14.2998 -94.7002 4.39941 -129.8 -30.7002
c-23.1328 -23.1846 -37.4443 -55.2119 -37.4443 -90.5186s14.3115 -67.2969 37.4443 -90.4814c35.0996 -35.0996 85.5 -45 129.7 -30.7002zM256 288c7.68848 -0.0976562 15.1426 -1.10352 22.2998 -2.90039c-14.1816 -27.9053 -22.1777 -59.8809 -22.1777 -93.3027
s7.99609 -64.9912 22.1777 -92.8965c-7.50098 -1.88477 -15.3301 -2.89453 -23.4131 -2.89453c-52.9834 0 -96 43.0166 -96 96c0 52.9844 43.0166 96 96 96c0.37207 0 0.743164 -0.00195312 1.11328 -0.00585938z" />
    <glyph glyph-name="eclipse-alt-secondary" unicode="&#x10f74a;" 
d="M502.42 207.5c5.6875 -2.84375 9.59668 -8.7041 9.59668 -15.4912c0 -6.86523 -4.00098 -12.8037 -9.79688 -15.6084l-94.7002 -47.3008l33.5 -100.399c4.60059 -13.5 -8.2998 -26.4004 -21.8994 -21.9004l-100.4 33.5l-47.3096 -94.7002
c-2.83398 -5.69922 -8.69824 -9.62012 -15.4902 -9.62012s-12.6758 3.9209 -15.5098 9.62012l-47.2998 94.7002l-100.41 -33.5c-13.5 -4.59961 -26.4004 8.2998 -21.9004 21.9004l33.5098 100.5l-94.71 47.2998c-5.69922 2.83398 -9.62012 8.69727 -9.62012 15.4902
c0 6.79199 3.9209 12.6758 9.62012 15.5098l94.71 47.4004l-33.5098 100.399c-4.59961 13.5 8.2998 26.4004 21.9004 21.9004l100.51 -33.5l47.2998 94.7002c2.83398 5.69922 8.69824 9.62012 15.4902 9.62012s12.6758 -3.9209 15.5098 -9.62012l47.4102 -94.8008
l100.4 33.5c13.5 4.60059 26.3994 -8.2998 21.8994 -21.8994l-33.5 -100.4zM346.52 101.5c23.1328 23.1846 37.4443 55.2119 37.4443 90.5186s-14.3115 67.2969 -37.4443 90.4814c-49.8994 49.9004 -131.1 49.9004 -181 0
c-23.1328 -23.1846 -37.4434 -55.2119 -37.4434 -90.5186s14.3105 -67.2969 37.4434 -90.4814c49.8906 -49.9004 131.091 -49.9004 181 0z" />
    <glyph glyph-name="fire-smoke-secondary" unicode="&#x10f74b;" horiz-adv-x="640" 
d="M195.7 164.8c-13.2969 9.44043 -28.4141 16.7539 -44.5 21.2998c-4.63672 15.499 -7.17188 31.9082 -7.2002 48.9004c0 54.2002 54.7998 144.1 132 213c30.0996 -26.9004 56.5996 -55.7002 77.9004 -84c13.7686 16.252 28.3271 31.2061 44.1992 45.4004
c57 -50.8008 97.8008 -133.9 97.8008 -174.2c-0.0292969 -16.9922 -2.56348 -33.4014 -7.2002 -48.9004c-16.0859 -4.54688 -31.2041 -11.8604 -44.5 -21.2998c-10.4551 12.792 -22.625 23.7383 -36.5 32.7998c3.59863 10.2939 5.55566 21.3564 5.55566 32.8711
c0 16.1094 -3.8584 31.4561 -10.6562 44.9287c-2.5 4.90039 -5.2998 10.1006 -8.39941 15.4004l-43.7998 -51.7002s-68.6006 90.7002 -73.8008 96.9004c-36.1992 -45 -54.3994 -71.2998 -54.3994 -101.101
c-0.00195312 -0.268555 -0.00292969 -0.538086 -0.00292969 -0.807617c0 -13.5791 2.6543 -26.5986 7.40234 -38.4922c-12.8135 -8.7207 -24.0938 -19.0439 -33.8994 -31z" />
    <glyph glyph-name="flag-alt-secondary" unicode="&#x10f74c;" 
d="M512 417.17v-301.29c0 -0.0605469 0.000976562 -0.121094 0.000976562 -0.181641c0 -12.7422 -7.58301 -23.7012 -18.501 -28.6182c-175.8 -76.4102 -211.8 69.0898 -397.5 -23.0801v351.58c209.4 94.5898 195.3 -59.0996 366.6 28.1895
c22.6006 11.5 49.4004 -1.5 49.4004 -26.5996z" />
    </font>
</defs>
</svg>
